<svg xmlns="http://www.w3.org/2000/svg"><defs><font id="CalciteWebCoreIcons" horiz-adv-x="1024"><font-face units-per-em="1024" ascent="960" descent="-64"/><glyph horiz-adv-x="512"/><glyph unicode="" d="M588.934 448l316.813-316.814-76.934-76.934-316.812 316.813L195.188 54.252l-76.934 76.934L435.067 448 118.254 764.748l76.934 76.941 316.813-316.755 316.812 316.813 76.934-76.998-316.813-316.748z" data-tags="close"/><glyph unicode="" d="M896 704H128c-35.188 0-64 28.812-64 64 0 35.186 28.812 64 64 64h768c35.187 0 64-28.814 64-64 0-35.188-28.813-64-64-64zm0-320H128c-35.188 0-64 28.812-64 64 0 35.186 28.812 64 64 64h768c35.187 0 64-28.814 64-64 0-35.188-28.813-64-64-64zm0-320H128c-35.188 0-64 28.812-64 64 0 35.186 28.812 64 64 64h768c35.187 0 64-28.814 64-64 0-35.188-28.813-64-64-64z" data-tags="drag-horizontal"/><glyph unicode="" d="M768 64v768c0 35.186 28.812 64 64 64 35.187 0 64-28.814 64-64V64c0-35.188-28.813-64-64-64-35.188 0-64 28.812-64 64zm-320 0v768c0 35.186 28.812 64 64 64 35.187 0 64-28.814 64-64V64c0-35.188-28.813-64-64-64-35.188 0-64 28.812-64 64zm-320 0v768c0 35.186 28.812 64 64 64 35.187 0 64-28.814 64-64V64c0-35.188-28.813-64-64-64-35.188 0-64 28.812-64 64z" data-tags="drag-vertical"/><glyph unicode="" d="M1012.314 448c0-64.238-52.075-116.314-116.314-116.314S779.686 383.761 779.686 448c0 64.238 52.075 116.314 116.314 116.314S1012.314 512.239 1012.314 448zm-768.032 0c0-64.221-52.061-116.282-116.282-116.282S11.718 383.779 11.718 448 63.779 564.282 128 564.282 244.282 512.221 244.282 448zm384 0c0-64.221-52.061-116.282-116.282-116.282S395.718 383.779 395.718 448 447.779 564.282 512 564.282 628.282 512.221 628.282 448z" data-tags="handle-horizontal"/><glyph unicode="" d="M628.282 64C628.282-.221 576.221-52.282 512-52.282S395.718-.221 395.718 64 447.779 180.282 512 180.282 628.282 128.221 628.282 64zm.032 768c0-64.238-52.075-116.314-116.314-116.314S395.686 767.761 395.686 832c0 64.238 52.075 116.314 116.314 116.314S628.314 896.239 628.314 832zm0-384c0-64.238-52.075-116.314-116.314-116.314S395.686 383.761 395.686 448c0 64.238 52.075 116.314 116.314 116.314S628.314 512.239 628.314 448z" data-tags="handle-vertical"/><glyph unicode="" d="M381.657 256L161.439 476.249l-96-96L381.657 64l616.877 616.716-96.032 96.032z" data-tags="check-mark"/><glyph unicode="" d="M704 0L256 448l448 448V0z" data-tags="left-triangle-arrow"/><glyph unicode="" d="M320 896l448-448L320 0v896z" data-tags="right-triangle-arrow"/><glyph unicode="" d="M960 640L512 192 64 640h896z" data-tags="down-arrow"/><glyph unicode="" d="M64 192l448 448 448-448H64z" data-tags="up-arrow"/><glyph unicode="" d="M858.501 576L640 794.502l-256-256-256 256V64h730.501l-256 256 256 256z" data-tags="overview-arrow-bottom-left"/><glyph unicode="" d="M640 538.502l-256 256L165.497 576l256-256-256-256H896v730.502l-256-256z" data-tags="overview-arrow-bottom-right"/><glyph unicode="" d="M858.502 832H128V101.497l256 256 256-256L858.502 320l-256 256 256 256z" data-tags="overview-arrow-top-left"/><glyph unicode="" d="M165.497 832l256-256-256-256L384 101.497l256 256 256-256V832H165.497z" data-tags="overview-arrow-top-right"/><glyph unicode="" d="M64 832V64h896v768H64zm832-704H128v512h768V128z" data-tags="maximize"/><glyph unicode="" d="M1024 896H320V640H0V0h704v256h320v640zM640 64H64v448h576V64zm320 256H704v320H384v128h576V320z" data-tags="minimize"/><glyph unicode="" d="M64 896V0h896v896H64zm768-768H192v640h640V128z" data-tags="checkbox-unchecked"/><glyph unicode="" d="M64 896V0h896v896H64zm768-768H192v640h640V128zm-416.25 91.315L256.064 390.374l64 64 95.219-99.814 284.845 284.812L768 571.5 415.75 219.314z" data-tags="checkbox-checked"/><glyph unicode="" d="M512 870.406c-233.28 0-422.407-189.03-422.407-422.406C89.593 214.809 278.72 25.625 512 25.625S934.406 214.809 934.406 448c0 233.376-189.126 422.406-422.406 422.406zm0-757.658c-184.845 0-335.252 150.502-335.252 335.252 0 184.876 150.406 335.251 335.252 335.251S847.251 632.877 847.251 448c0-184.749-150.406-335.252-335.251-335.252z" data-tags="radio-unchecked"/><glyph unicode="" d="M691.187 448c0-98.81-80.378-179.188-179.187-179.188-98.81 0-179.188 80.378-179.188 179.188S413.19 627.187 512 627.187c98.809 0 179.187-80.378 179.187-179.187zm243.219 0C934.406 214.809 745.28 25.625 512 25.625S89.593 214.809 89.593 448c0 233.376 189.127 422.406 422.407 422.406S934.406 681.376 934.406 448zm-87.155 0c0 184.876-150.406 335.251-335.251 335.251S176.748 632.877 176.748 448c0-184.749 150.406-335.252 335.252-335.252 184.844 0 335.251 150.502 335.251 335.252z" data-tags="radio-checked"/><glyph unicode="" d="M513.498-52.685c275.693 0 499.187 223.437 499.187 499.187 0 275.686-223.494 499.187-499.187 499.187-275.75 0-499.187-223.501-499.187-499.187 0-275.75 223.437-499.187 499.187-499.187zm0 921.561c232.941 0 422.374-189.44 422.374-422.374 0-232.941-189.434-422.374-422.374-422.374-232.934 0-422.374 189.433-422.374 422.374 0 232.934 189.44 422.374 422.374 422.374zm-64-321.19L256 348.064v161.747c92.627 93.19 257.498 256.691 257.498 256.691S672 604.499 768 511.065V347.686l-192 200V128H449.498v419.686z" data-tags="up-arrow-circled"/><glyph unicode="" d="M512 947.187C236.313 947.187 12.812 723.75 12.812 448 12.812 172.313 236.313-51.188 512-51.188c275.75 0 499.187 223.501 499.187 499.188 0 275.75-223.437 499.187-499.187 499.187zm0-921.562C279.065 25.625 89.625 215.065 89.625 448S279.065 870.406 512 870.406c232.934 0 422.374-189.472 422.374-422.406S744.934 25.625 512 25.625zm64 321.184l192 199.629V384.684C675.372 291.5 512 128 512 128S352 290.003 256 383.436v163.373l192-200V768h128V346.809z" data-tags="down-arrow-circled"/><glyph unicode="" d="M512 947.187C236.313 947.187 12.812 723.75 12.812 448 12.812 172.313 236.313-51.188 512-51.188c275.75 0 499.186 223.501 499.186 499.188 0 275.75-223.437 499.187-499.186 499.187zm0-921.562C279.065 25.625 89.625 215.065 89.625 448S279.065 870.406 512 870.406c232.934 0 422.374-189.472 422.374-422.406S744.934 25.625 512 25.625zM832 512V384H410.809l200-192H447.436C354.002 288 192 448 192 448s163.5 163.372 256.684 256h161.754L410.809 512H832z" data-tags="left-arrow-circled"/><glyph unicode="" d="M512 947.187C236.313 947.187 12.812 723.75 12.812 448 12.812 172.313 236.313-51.188 512-51.188c275.749 0 499.186 223.501 499.186 499.188 0 275.75-223.437 499.187-499.186 499.187zm0-921.562C279.065 25.625 89.625 215.065 89.625 448S279.065 870.406 512 870.406c232.933 0 422.373-189.472 422.373-422.406S744.933 25.625 512 25.625zm320 422.311S668.498 288 575.314 192H413.56l199.629 192H192v128h421.189l-200 192h163.373C670.002 610.688 832 447.936 832 447.936z" data-tags="right-arrow-circled"/><glyph unicode="" d="M0 960h384v-96H162.72L384 648.876v-67.5L378.624 576h-67.751L96 797.126V576H0v384zm640 0v-96h221.28L640 648.876v-67.5l5.376-5.376h67.75L928 797.126V576h96v384H640zM928 98.873L713.126 320h-67.75L640 314.624v-67.501L861.28 32H640v-96h384v384h-96V98.873zM310.873 320L96 98.873V320H0V-64h384v96H162.72L384 247.123v67.501L378.624 320h-67.751z" data-tags="zoom-out-fixed"/><glyph unicode="" d="M640 320h384v-96H802.719L1024 8.876v-67.5L1018.624-64h-67.751L736 157.126V-64h-96v384zM0 224h221.279L0 8.876v-67.5L5.376-64h67.75L288 157.126V-64h96v384H0v-96zm288 514.873L73.126 960H5.376L0 954.624v-67.501L221.279 672H0v-96h384v384h-96V738.873zm736 215.751l-5.376 5.376h-67.751L736 738.873V960h-96V576h384v96H802.719L1024 887.123v67.501z" data-tags="zoom-in-fixed"/><glyph unicode="" d="M960 960V512H512v96h290.56C745.875 704 637.376 780.812 512 780.812c-113.127 0-212.25-57.498-272.314-144.064l-120.563 25.626C195.001 801.497 342.31 896 512 896c143.065 0 270.124-67.316 352-171.751V960h96zM512 115.187C386.624 115.187 278.124 192 221.44 288H512v96H64V-64h96v235.814C241.875 67.315 368.934 0 512 0c169.689 0 316.998 94.502 392.876 233.625l-120.563 25.626C724.249 172.685 625.126 115.187 512 115.187z" data-tags="refresh"/><glyph unicode="" d="M878.188 657.939L719.622 816.435l52.877 52.813c29.19 29.126 76.435 29.126 105.626 0l52.749-52.813c29.255-29.184 29.255-76.435.128-105.562l-52.813-52.934zM157.561 249.747L81.625 17.625l234.502 73.626-158.566 158.496zM654.559 745.19L236.127 334.252l158.433-158.38 418.374 410.937L654.56 745.19z" data-tags="edit"/><glyph unicode="" d="M864.941 900.547l-45.254-45.254-135.766 45.254-226.273-226.273v-90.508L706.55 832.668l67.883-22.629-588.312-588.313L321.883 85.96l678.824 678.824zM73.738-27.93l202.891 68.637-135.766 135.766z" data-tags="authorize"/><glyph unicode="" d="M511.968 960C358.842 960 256 902.253 256 752V208L511.968-64 768 208v544c0 150.253-102.842 208-256.032 208zM512 499.123c-77.779 0-140.781 63.066-140.781 140.877 0 77.747 63.002 140.813 140.781 140.813S652.781 717.747 652.781 640c0-77.811-63.002-140.877-140.781-140.877z" data-tags="map-pin"/><glyph unicode="" d="M511.968 960C358.842 960 256 902.253 256 752V208L511.968-64 768 208v544c0 150.253-102.842 208-256.032 208z" data-tags="blank-map-pin"/><glyph unicode="" d="M64 896V64h960v832H64zm448-255.984h191.988V511.989H512v128.027zm0-192.028h191.988v-128H512v128zM448 128H128v127.988h320V128zm0 191.988H128v128h320v-128zm0 192H128l.004 128.027H448V511.988zM512 128v127.988h191.988V128H512zm448 0H767.988v127.988H960V128zm0 191.988H767.988v128H960v-128zm0 192H767.988v128.027H960V511.988z" data-tags="table"/><glyph unicode="" d="M960 384H576V0H448v384H64v128h384v384h128V512h384V384z" data-tags="zoom-in"/><glyph unicode="" d="M960 384H64v128h896V384z" data-tags="zoom-out"/><glyph unicode="" d="M832 768V128L384 447.936 832 768zm-576 0H128V128h128v640z" data-tags="beginning"/><glyph unicode="" d="M576 768V128L128 447.936 576 768zm256 0H704V128h128v640z" data-tags="reverse"/><glyph unicode="" d="M832 832V64H640v768h192zM192 64h192v768H192V64z" data-tags="pause"/><glyph unicode="" d="M192 960l704-512.064L192-64V960z" data-tags="play"/><glyph unicode="" d="M896 447.936L448 128v640l448-320.064zM192 128h128v640H192V128z" data-tags="forward"/><glyph unicode="" d="M640 447.936L192 128v640l448-320.064zM768 128h128v640H768V128z" data-tags="end"/><glyph unicode="" d="M502.373 883.75L916.376 511.5 512.933 345.439c-3.936-1.44-7.872-2.317-11.493-2.317-8.128 0-15.438 3.066-21.006 8.749L64.997 781.689l392.442 112.122c4.371 1.562 8.998 2.189 13.626 2.189 11.373 0 22.624-4.25 31.309-12.25zm493.063-683.436L564.185 22.81c-5.498-2.246-11.373-3.437-17.248-3.437-12 0-23.75 4.813-32.499 13.818L66.809 496.001c-4.371 4.499-7.744 9.811-9.875 15.814C37.811 563.437-2.061 656.564.065 717.063L424.813 277.94c20.064-20.749 48.186-32.813 76.934-32.813 13.818 0 27.501 2.81 40.691 8.186L977.19 432.628c29.312-76.813 78.496-207.814 18.246-232.314z" data-tags="erase"/><glyph unicode="" d="M320 338.874l128 128V320L256 128 64 320v146.874l128-128V768h128V338.874zM768 768L576 530.874V384l128 173.126V128h128v429.126L960 384v146.874L768 768z" data-tags="up-down-arrows"/><glyph unicode="" d="M800 64H640L256 448l384 384h160L416 448 800 64z" data-tags="left"/><glyph unicode="" d="M224 832h160l384-384L384 64H224l384 384-384 384z" data-tags="right"/><glyph unicode="" d="M927.984 840.641c-19.812 11.426-44.188 11.363-64-.07-484.688-279.84-239.516-138.285-443.453-256.035-9.766-5.633-20.688-8.535-31.961-8.535H64c-35.344 0-64-28.648-64-63.992V383.993c0-35.348 28.656-63.992 64-63.992v-128c0-35.348 28.656-64 64-64h192c35.344 0 64 28.652 64 64v128h4.57c11.203 0 22.258-2.934 31.953-8.535 204.312-117.957-32.727 18.898 443.461-256.031a64.011 64.011 0 0 1 63.984-.016c19.797 11.418 32.031 32.527 32.031 55.379v674.406c0 22.871-12.203 44.012-32.016 55.437zM320 192H128v128h191.999V192z" data-tags="announcement"/><glyph unicode="" d="M448 665.6c0 21.208 17.192 38.4 38.4 38.4h51.2c21.208 0 38.4-17.192 38.4-38.4V422.4c0-21.208-17.192-38.4-38.4-38.4h-51.2c-21.208 0-38.4 17.192-38.4 38.4v243.2zm128-383.974C576 302.81 558.809 320 537.625 320h-51.251C465.19 320 448 302.81 448 281.626v-51.251c0-21.184 17.19-38.374 38.374-38.374h51.251c21.184 0 38.375 17.19 38.375 38.374v51.251zM1011.187 448c0-275.686-223.437-499.187-499.187-499.187C236.313-51.187 12.812 172.314 12.812 448S236.313 947.187 512 947.187c275.75 0 499.187-223.501 499.187-499.187zm-76.813 0c0 232.934-189.44 422.438-422.374 422.438-232.935 0-422.375-189.504-422.375-422.438S279.065 25.626 512 25.626c232.934 0 422.374 189.44 422.374 422.374z" data-tags="notice-round"/><glyph unicode="" d="M920.434 0c22.189 0 42.752 11.501 54.438 30.374 11.687 18.816 12.749 42.374 2.816 62.253L569.31 909.497c-10.874 21.69-32.998 35.379-57.247 35.379-24.25 0-46.375-13.69-57.255-35.379L46.309 92.627c-9.933-19.814-8.87-43.379 2.816-62.253C60.747 11.5 81.375 0 103.563 0h816.87zm-816.87 64l408.5 816.877L920.434 64h-816.87zM448 601.6c0 21.208 17.192 38.4 38.4 38.4h51.2c21.208 0 38.4-17.192 38.4-38.4V358.4c0-21.208-17.192-38.4-38.4-38.4h-51.2c-21.208 0-38.4 17.192-38.4 38.4v243.2zm128-435.226C576 145.19 558.809 128 537.625 128h-51.251C465.19 128 448 145.19 448 166.374v51.251c0 21.184 17.19 38.374 38.374 38.374h51.251c21.184 0 38.375-17.19 38.375-38.374v-51.251z" data-tags="notice-triangle"/><glyph unicode="" d="M960 449.376V-64H640v384H384V-64H64v512H0l192 192v320h192V832l128 128 512-510.624h-64z" data-tags="home"/><glyph unicode="" d="M513.496 945.689c-275.686 0-499.187-223.469-499.187-499.187S237.81-52.685 513.496-52.685c275.752 0 499.187 223.469 499.187 499.187S789.248 945.689 513.496 945.689zM576 29.465v161.037H449.496V29.465C267.87 57.28 124.248 200.876 96.498 382.502L256 384v126.502H96.498c27.75 181.626 171.373 325.216 352.998 353.03V704H576v159.532c181.624-27.814 326.687-171.405 354.501-353.03H769.496L768 384h162.501C902.687 202.374 757.624 57.28 576 29.465z" data-tags="locate"/><glyph unicode="" d="M993.496 64h-160l-384 384 384 384h160l-384-384 384-384zm-832 384l384 384h-160l-384-384 384-384h160l-384 384z" data-tags="expand"/><glyph unicode="" d="M33.498 832h160l384-384-384-384h-160l384 384-384 384zm832-384l-384-384h160l384 384-384 384h-160l384-384z" data-tags="collapse"/><glyph unicode="" d="M127.936 704H0v128h127.936V704zm0-192H0V384h127.936v128zm0-320H0V64h127.936v128zm896 0h-768V64h768v128zm0 320h-768V384h768v128zm0 320h-768V704h768v128z" data-tags="layer-list"/><glyph unicode="" d="M0 960V512h447.686v448H0zm383.686-381.44V576h-154.56c15.059 28.127 33.376 64.876 53.626 89.344 25.248-35.534 53.626-65.69 100.934-86.784zM190.438 885.248c3.814-7.47 7.501-15.188 9.939-24.122 11.558-41.843 27.437-98.502 55.622-152.064-31.315-35.219-59.187-81.875-79.872-133.062H63.685v184.812c79.686 27.59 110.253 89.28 126.752 124.436zM1023.686 960H576V512h447.686v448zM840.314 576c.314 8 1.184 17.938 2.688 25.746.934 24.346 9.875 61.344 24.064 67.469 7.744 3.379 14.746 5.222 20.621 6.848 13.19 3.558 28.064 7.654 36.378 22.842 8.499 15.565 4.563 34.029-1.69 53.875 2.816 4.532 14.253 9.094 37.312 11.034V576H840.314zm119.372 236.716c-27.123-1.626-58.688-7.84-75.936-30.842-9.626-12.877-12.064-29.094-6.874-45.722 1.747-5.529 2.688-9.402 3.187-12.026-1.69-.506-3.565-1.005-5.126-1.439-7.75-2.126-16.877-4.686-27.066-9.095-47.558-20.563-52.685-95.283-52.749-105.939-1.062-5.152-3.373-13.811-3.251-31.654h-65.434c3.059 15.872 3.123 20.812 2.56 26.56 1.875 18.188 8.064 108.908-49.875 139.001 5.062 1.779 9.69 3.123 12.25 3.501 86.566 4.064 107.13 79.75 114.253 118.31 3.251 17.562 21.498 27.162 40.378 32.628h113.683v-83.284zm64-428.716H576V-64h447.686v448zM700.998 107.75L755.187 0H639.686v320h10.816l139.872-85.159-86.125-100.531c-6.374-7.373-7.622-17.875-3.251-26.56zM743.501 320h216.186V188.377L743.501 320zM0 384V-64h447.686v448H0zm374.874-99.47c-.122-.403-11.936-36.749-54.061-43.75-39.187-6.528-58.81-32.531-66.189-59.155-48.064 15.437-92.685 7.565-123.501-23.066-36.499-36.435-44.058-96.435-18.246-145.997 1.434-2.752 3.059-8.096 4.25-12.562h-53.44v320h320.314v-4.065c-11.686-16.467-8.627-29.843-9.126-31.405z" data-tags="basemap"/><glyph unicode="" d="M436.562 782.438c-26.374-1.408-22.752 27.75-24.186 36.966 0 0 9.933 7.098 15.622 9.222 5.69 2.158 24.186 2.158 27.75-9.222 3.501-11.373 7.123-35.532-19.187-36.966zm64.627-57.53c15.622 11.341 33.434-.723 46.246 0 12.749.685 15.565 17.062 21.312 25.562 5.69 8.563 30.502 19.904 18.438 31.968-12.122 12.064-70.374 20.595-85.248 1.434-7.629-9.844-31.315-36.999-43.378-42.624-12.059-5.652-5.685-27.719 2.123-29.12 7.878-1.441 24.877 1.401 40.506 12.78zm71.123-70.406c-4.248-5.005 2.189-15.693 16.314-15.693 0-10.656 2.874-27.718 17.062-24.122 14.182 3.565 15.688 24.186-2.125 35.565-8.314 5.28-17.003 29.12-31.251 4.25zm429.184-208c0-269.536-218.496-488-488-488-269.498 0-488 218.464-488 488 0 269.498 218.502 488 488 488 269.504 0 488-218.502 488-488zm-488-409.94c41.939 0 82.374 6.374 120.506 18.125-1.005 3.123-2.189 6.406-4.192 10.029-11.309 20.596-16.37 62.534-4.998 73.19 11.315 10.688 16.314 38.374 7.814 45.498-8.498 7.066 5.747 19.22 7.123 26.97 7.872 29.19-7.813 30.56-31.936 37.722-24.192 7.059-48.314-2.88-79.565-3.597-31.373-.685-44.122 44.096-47.686 51.846-11.314 7.123-26.938 17.843-24.813 33.434 2.125 15.686 16.315 29.126 16.998 32-2.81 9.254 0 26.254 4.314 31.968 7.066 27.002 41.875 44.755 53.312 49.786 4.25 18.47 40.499 36.218 48.998 32.621 8.499-3.526 16.378-17.03 29.875 0 13.44 17.095 22.003 12.096 42.624 12.096 20.563 0 26.938-9.971 33.377-29.126 6.373-19.186 51.186-21.997 51.877-17.778 9.184 30.528 34.81 7.122 39.808 7.122 29.875 2.094 33.376 14.906 29.875 32.691-3.558 17.747-33.432 8.531-36.998 16.307-2.746 6.131-9.248 19.911-12.813 12.813-3.501-7.091-15.557-22.029-23.437-2.093-7.814 19.879-29.811 42.599-35.501 39.066-8.563-12.128-19.251-12.064-24.186-8.531-19.872 14.938-34.752-.749-43.373-9.254-8.499-8.531-21.376-22.592-39.878-27.622-18.438-4.934-30.559 7.846-32.685 26.31-2.125 18.502 14.31 33.971 30.688 25.504 16.371-8.531 30.496-1.44 23.437 5.658-7.066 7.123-12.063 27.027-2.816 30.528 9.19 3.566 15.629 0 31.251 21.344 15.63 21.312 33.376 14.222 54.003 10.656 20.621-3.565 14.939 30.56 13.498 36.966-1.439 6.407-26.31 20.595-28.435 15.661-2.067-4.973 3.558-27.718-8.499-33.44-12.128-5.715-24.192 13.562-34.131 24.909-9.997 11.341 9.254 21.998 11.379 27.718 5.69 20.595 29.184 37.658 51.187 26.246 21.997-11.405 26.246-2.842 24.877.755-11.443 13.498-11.066 37.843 0 49.715 6.874 7.405 13.37 12.128 19.437 15.002-65.69 44.781-145.005 71.059-230.317 71.059-86.31 0-166.31-26.938-232.435-72.685 21.248 9.498 68.998 13.498 70.253 3.686 1.37-11.405 1.37-41.216 11.31-35.533 8.498 4.282 18.501 28.442 41.247 11.347 22.689-17.03-4.307-38.342-11.373-49.722-7.123-11.437-9.997-29.843-34.125-21.312-24.186 8.531-28.435-2.842-29.875-11.373-1.434-8.531-16.998-15.628-36.934-9.971-19.942 5.69-52.499-25.497-68.192-41.184-8.563-8.531-75.872-29.536-66.059 14.938.562 2.56 1.189 4.499 1.752 6.874-25.939-44.716-43.565-94.688-51.066-148 19.002-5.754 58.624-16.563 65.626-47.187 8.499-12.781 25.498-52.595 42.624-73.907 27.437-34.342 8.627-50.97 11.373-78.189 14.189-7.091 35.501-22.72 56.813-34.157 21.312-11.341 37.005-41.184 4.314-52.563-7.123-5.683 1.376-32.717-12.813-38.374-11.75-4.685-27.807-24.122-42.688-30.97 73.377-68.966 171.814-111.59 280.25-111.59zm409.939 409.94c0 6.214-.683 12.25-.934 18.406-9.939.282-22.88 2.688-31.187 4.838-13.44 3.598-23.443-10.624-17.062-15.622 6.374-4.934 21.37-10.592 22.746-19.872 1.44-9.254-14.189-51.162-22.746-66.752-8.506-15.686-18.438-17.062-23.443-10.003-4.934 7.13-14.182 41.907-24.87 61.843-10.688 19.878-12.064 4.282-8.499-8.557 3.558-12.755 19.873-61.818 24.87-76.032 20.627-4.282 23.437-6.406 29.875-12.813 6.317-6.374-1.434-14.938-12.813-31.219-11.371-16.378-51.872-91.002-53.995-104.467-1-6.502.184-16.506-.443-27.629 73.19 74.093 118.502 175.75 118.502 287.878z" data-tags="globe"/><glyph unicode="" d="M959.937 60.188L700.234 320H896v64H576V64h64v195.625L899.688-.063zM640 448h99.43l33.82 10.027c-7.875 30.824-38.367 67.812-38.367 67.812s35.414-22.469 55.57-16.59c19.906 5.809 4.977 29.859 21.563 47.277 2.734 2.867 10.469 4.094 16.188 4.031 9.094-30.57 14.063-62.926 14.063-96.453 0-5.434-.437-10.762-.781-16.105h89.578c.148 2.301.391 4.582.391 6.926 0 235.676-191.055 426.727-426.734 426.727-235.672 0-426.719-191.051-426.719-426.727S269.049 28.198 504.721 28.198c2.461 0 4.859.238 7.281.363v57.43l-7.016 40.586c-.086 0-.172-.008-.266-.008-68.469 0-131.984 20.652-185.188 55.703.906 28.316 14.484 54.316 49.242 105.391 27.336 40.176.508 80.664-21.055 94.766-21.57 14.098-43.609 38.152-104.984 52.25-17.617 4.051-60.984 12.047-75.516 28.215 0 .406-.031.805-.031 1.211 0 26.176 3.078 51.613 8.719 76.078 17.328-2.926 35.906-1.988 47.234-.246 32.344 4.977 31.734 38.145 42.516 68.004s53.352 33.066 71.602 67.898c12.258 23.414-8.727 50.773-20.469 68.66 53.719 36.078 118.367 57.145 187.93 57.145 38.203 0 74.867-6.437 109.109-18.125 2.656-15.973 4.328-38.352.375-53.645-4.391-16.969-36.266-25.23-45.266-40.023s-19.734-55.898 4.633-65.453c24.367-9.559 51.617 2.871 72.57-10.641 25.703-16.59 45.609-52.254 29.031-54.742-16.594-2.488-65.531 11.613-97.875 11.613s-111.969-58.059-106.992-108.652c1.602-16.336 4.305-28.84 8.141-38.418 2.117-7.93 21.664-25.961 33.555-27.293v51.734h128z" data-tags="applications"/><glyph unicode="" d="M513.498 945.689c-275.686 0-499.187-223.437-499.187-499.187 0-275.693 223.501-499.187 499.187-499.187 275.75 0 499.187 223.494 499.187 499.187 0 275.75-223.437 499.187-499.187 499.187zm0-921.561c-232.934 0-422.374 189.433-422.374 422.374 0 232.934 189.44 422.406 422.374 422.406 232.941 0 422.374-189.472 422.374-422.406 0-232.941-189.434-422.374-422.374-422.374zm254.188 262.374l-254.502 256-256-256v160l256 256 254.502-256v-160z" data-tags="arrow-up-circled"/><glyph unicode="" d="M513.498 945.689c-275.686 0-499.187-223.437-499.187-499.187 0-275.693 223.501-499.187 499.187-499.187 275.75 0 499.187 223.494 499.187 499.187 0 275.75-223.437 499.187-499.187 499.187zm0-921.561c-232.934 0-422.374 189.433-422.374 422.374 0 232.934 189.44 422.406 422.374 422.406 232.941 0 422.374-189.472 422.374-422.406 0-232.941-189.434-422.374-422.374-422.374zm-256 582.374l256-256 256 256v-160l-256-256-256 256z" data-tags="arrow-down-circled"/><glyph unicode="" d="M513.496 945.689c-275.686 0-499.187-223.437-499.187-499.187 0-275.693 223.501-499.187 499.187-499.187 275.752 0 499.187 223.494 499.187 499.187 0 275.75-223.435 499.187-499.187 499.187zm0-921.561c-232.934 0-422.374 189.433-422.374 422.374 0 232.934 189.44 422.406 422.374 422.406 232.941 0 422.376-189.472 422.376-422.406 0-232.941-189.435-422.374-422.376-422.374zm160 167.872l-256 254.502 256 257.498h-160l-256-257.498 256-254.502z" data-tags="arrow-left-circled"/><glyph unicode="" d="M513.498 945.689c-275.686 0-499.187-223.437-499.187-499.187 0-275.693 223.501-499.187 499.187-499.187 275.75 0 499.187 223.494 499.187 499.187 0 275.75-223.437 499.187-499.187 499.187zm0-921.561c-232.934 0-422.374 189.433-422.374 422.374 0 232.934 189.44 422.406 422.374 422.406 232.941 0 422.374-189.472 422.374-422.406 0-232.941-189.434-422.374-422.374-422.374zm-160 166.374l256 256-256 256h160l256-256-256-256z" data-tags="arrow-right-circled"/><glyph unicode="" d="M513.496 945.688c-275.684 0-499.188-223.434-499.188-499.188 0-275.691 223.504-499.184 499.188-499.184 275.75 0 499.188 223.492 499.188 499.184 0 275.754-223.438 499.188-499.188 499.188zm0-921.559c-232.934 0-422.371 189.434-422.371 422.371s189.437 422.41 422.371 422.41c232.941 0 422.375-189.473 422.375-422.41S746.437 24.129 513.496 24.129zM192 512h640V384H192v128z" data-tags="delete"/><glyph unicode="" d="M513.496 945.688c-275.688 0-499.188-223.434-499.188-499.188 0-275.691 223.5-499.184 499.188-499.184 275.75 0 499.188 223.492 499.188 499.184 0 275.754-223.438 499.188-499.188 499.188zm0-921.559c-232.934 0-422.371 189.434-422.371 422.371s189.437 422.41 422.371 422.41c232.941 0 422.375-189.473 422.375-422.41S746.437 24.129 513.496 24.129zM576 512v256H448V512H192V384h256V128h128v256h256v128z" data-tags="add"/><glyph unicode="" d="M64 896V0h896v896H64zm768-768H192v640h640V128zm-384 64h128v192h192v128H576v192H448V512H256V384h192z" data-tags="add-attachment"/><glyph unicode="" d="M340.685 292.685l386.253 386.066-42.688 42.689-386.125-385.939c-43.75-43.686-43.75-114.625 0-158.004 43.501-43.75 114.374-43.75 157.939 0l.064-.057 473.561 473.434c70.746 70.751 70.746 185.439 0 256.128-70.624 70.623-185.19 70.623-255.942 0L114.752 348c-94.253-94.31-94.067-247.123.057-341.248 94.253-94.316 247.066-94.316 341.255-.063l471.501 471.436-42.688 42.689L413.376 49.313c-70.567-70.624-185.312-70.624-255.879.128-70.688 70.624-70.688 185.12-.057 255.807l558.937 559.066c47.187 47.059 123.623 47.059 170.688 0 47.123-47.186 47.123-123.564 0-170.623L413.561 219.937c-9.376-9.498-22.31-15.373-36.685-15.373-28.499 0-51.565 23.059-51.565 51.502 0 14.374 5.939 27.308 15.373 36.621z" data-tags="attachment"/><glyph unicode="" d="M64-64h832v640H64V-64zm640 576h128V384H704v128zm0-192h128V192H704v128zm0-192h128V0H704v128zM512 512h128V384H512v128zm0-192h128V192H512v128zm0-192h128V0H512v128zM320 512h128V384H320v128zm0-192h128V192H320v128zm0-192h128V0H320v128zM128 512h128V384H128v128zm0-192h128V192H128v128zm0-192h128V0H128v128zm768 768V640H64v256h128V768h192v128h192V768h192v128h128zm-576-64h-64v128h64V832zm384 0h-64v128h64V832z" data-tags="calendar"/><glyph unicode="" d="M691.123 704H768v-76.877L588.781 447.936 768 268.748V192h-76.877L511.968 371.187 332.749 192H256v76.748l179.155 179.188L256 627.123V704h76.749l179.219-179.188L691.123 704zm320.064-256c0-275.687-223.469-499.188-499.187-499.188S12.813 172.313 12.813 448c0 275.686 223.469 499.187 499.187 499.187S1011.187 723.686 1011.187 448zm-76.781 0c0 232.934-189.498 422.374-422.406 422.374S89.593 680.934 89.593 448C89.593 215.065 279.091 25.625 512 25.625S934.406 215.065 934.406 448z" data-tags="close-circled"/><glyph unicode="" d="M0 832V64h1024v768H0zm256-704H64v448h192V128zm704 0H320v448h640V128z" data-tags="browser"/><glyph unicode="" d="M1024 640V-64H320V0h640v640h64zM832 768V128H192V64h704v704h-64zm-64 128V192H64v704h704zm-64-263.598V832H530.56c22.125-64 9.568-70.842 5.005-76.154-4.442-5.19-11.251-8.755-18.317-10.221-8.749-7.622-26.438-31.347-31.245-48.064-4.506-15.533-14.502-27.533-28.314-33.875-24.691-11.373-52.378-.371-58.938 2.624-3.002-9.344-7.75-19.437-15.251-29.933-16.563-22.97-36.877-28.128-51.002-28.41-37.376-.346-71.437 33.562-83.814 48.097 7.379-19.847 12.755-45.44 5.19-63.438-1.875-4.41-4.435-8.346-7.622-11.661 32.813 2.656 59.936-12.531 72.499-33.715 14.624-24.69 12.934-62.002-23.878-89.626-9.626-7.219-14.189-13.376-15.936-18.438 37.69-5.842 65.811-26.97 74.374-57.376 9.248-32.813-6.624-66.906-40.563-86.874-1.062-.627-10.746-6.937-21.875-38.937h268c-.064 32-.122 36.032-.371 36.313-3.501 4.845-13.568 7.719-27.565 7.968-52.186.967-76.25 33.216-81.44 63.034-6.874 40.122 15.251 83.968 50.438 103.405-17.376 22.497-6.496 39.341-.314 46.125 2.189 2.406 5.818 5.812 10.253 9.908 25.376 23.276 31.002 33.433 31.187 37.778-1.19 22.534 7.814 42.094 24.749 53.472 11.123 7.558 34.816 17.184 72.499 2.496.813 1.312 1.562 2.688 2.317 3.846 2.874 5.063 33.683 8.749 63.373 12.058z" data-tags="collection"/><glyph unicode="" d="M511.984 896C224.906 896 0 753.137 0 570.73c0-114.641 89.719-217.563 237.367-275.895-2.191-26.809-10.375-69.715-34.859-132.563L139.999 1.627l156.102 73.215c5.93 2.762 132.93 63.25 209.918 170.684h5.961c287.113 0 512.02 142.863 512.02 325.203 0 182.402-224.906 325.27-512.016 325.27zM512 314.496c-14.559 0-28.922.465-43.121 1.262-60.93-112.266-202.086-178.473-202.086-178.473 46.355 119.117 42.574 181.66 37.035 207.305C164.125 387.703 64 478.012 64 576c0 141.535 203.324 256.004 448 256 244.676 0 448-119.707 448-261.242 0-141.531-203.324-256.262-448-256.262zM256 704h512v-64H256v64zm0-128h384v-64H256v64z" data-tags="comment"/><glyph unicode="" d="M192 832h320v-64H192v64zm256-128h320v-64H448v64zM192 448h192v256H192V448zm64 192h64V512h-64v128zm64-404.449l-84-67.172 18.059 72.121c4.75 19.125.5 39.25-11.559 54.754C230.254 310.875 211.687 320 192 320h-64.063C92.75 320 64 348.75 64 384v448c0 35.125 28.75 64 63.937 64h704c35.25 0 64.063-28.875 64.063-64V572.086c3.012.469 5.957 1.477 8.996 1.477a58.995 58.995 0 0 0 41.758-17.312L960 543.005v288.996c0 70.625-57.312 128-128 128H128c-70.688 0-128-57.375-128-128v-448c0-70.75 57.312-128 128-128h64l-64-256 213.605 170.883C328.687 181.794 320 197.411 320 215.376v20.176zm704-22.36v80.621l-102.688 13.441c-5.313 21.559-13.875 41.625-24.934 60.121l66.621 85.559-57.063 57.063-85.754-66.43c-18.309 10.996-38.559 19.437-60 24.75L746.807 576h-80.621l-13.563-107.684c-21.437-5.312-41.504-13.754-60.125-24.75l-85.434 66.43-57.063-57.063 66.43-85.434c-10.992-18.621-19.437-38.688-24.746-60.246l-107.688-13.441v-80.621l107.688-13.504c5.309-21.312 13.754-41.563 24.746-60l-66.43-85.625 56.934-56.934 85.563 66.621c18.621-11.312 38.688-19.75 60.125-24.937l13.434-102.813h80.75l13.375 102.812c21.441 5.187 41.691 13.625 60.129 24.937l85.5-66.621 57.188 56.934-66.621 85.625c11.184 18.437 19.621 38.688 24.934 60l102.687 13.504zm-142.937-1.625a181.678 181.678 0 0 0-20.563-49.504c-8.629-14.312-7.437-32.5 2.75-45.812l45.129-57.812-6.754-6.812L843.75 96.63c-7.371 5.809-16.188 8.684-25.063 8.684-7.188 0-14.437-1.937-20.75-5.875a183.383 183.383 0 0 0-49.688-20.563c-16.25-4-28.312-17.746-30.375-34.375l-9.125-72.812h-9.629l-8.996 72.812c-2.063 16.629-14.125 30.254-30.375 34.375a178.637 178.637 0 0 0-49.691 20.563c-6.371 3.937-13.559 5.875-20.867 5.875-8.879 0-17.691-2.875-25.063-8.684l-57.875-45.004-6.633 6.75 45.004 57.754c10.312 13.434 11.437 31.621 2.812 45.934-9.25 15.5-16.188 32.063-20.5 49.504-4.063 16.305-17.691 28.371-34.437 30.496l-72.812 9.063.063 9.754 72.75 8.996c16.746 2.063 30.375 14.191 34.437 30.563 4.312 17.312 11.25 33.937 20.5 49.375 8.625 14.437 7.5 32.625-2.812 45.812l-45.125 58 6.754 6.754 58.059-45.125a40.539 40.539 0 0 1 45.942-2.691c15.121 9.25 31.75 16.066 49.496 20.566 16.25 4.121 28.312 17.625 30.375 34.371l8.996 72.688h9.629l9.125-72.688c2.063-16.746 14.059-30.25 30.309-34.371 17.691-4.5 34.441-11.316 49.504-20.566 6.563-3.934 13.812-5.875 21-5.875 8.812 0 17.691 2.875 25 8.566l57.937 45.125 6.754-6.754-45.129-58c-10.188-13.188-11.379-31.375-2.75-45.684 9.375-15.688 16.184-32.316 20.563-49.504 4.063-16.371 17.691-28.5 34.309-30.563l72.941-8.996-.063-9.754-72.879-9.063c-16.617-2.125-30.246-14.191-34.309-30.496zM703.937 377.875c-67.188 0-121.812-54.75-121.812-121.875 0-67.121 54.625-121.875 121.812-121.875 67.184 0 121.809 54.754 121.809 121.875 0 67.125-54.625 121.875-121.809 121.875zm0-203.121c-44.816 0-81.188 36.371-81.188 81.246 0 44.879 36.371 81.25 81.188 81.25 44.875 0 81.254-36.371 81.254-81.25 0-44.875-36.379-81.246-81.254-81.246z" data-tags="configure-popup"/><glyph unicode="" d="M0 832V64h1024v768H0zm960-64v-16.605L510.375 450.754 64 749.418V768h896zM64 128v555.227L449.246 427.5c20.358-14.461 39.145-27.847 61.129-43.5 22.074 15.718 40.767 29.039 61.125 43.5v-.031L960 685.508V128H64z" data-tags="contact"/><glyph unicode="" d="M183.324 164.574zm680.122 9.588h.109v-64.223h-.109v64.223zm87.226 539.248c12.437 12.445 12.437 32.809 0 45.254-12.453 12.445-32.812 12.449-45.266.004l-328.762-328.77C557.609 441.121 535.695 448 511.999 448c-70.691 0-128-57.309-128-128s57.309-128 128-128 128 57.309 128 128c0 23.695-6.879 45.609-18.102 64.645L950.67 713.411zM1010.539 448c0 44.063-6.281 86.555-17.008 127.246l-53.688-53.676c4.109-23.969 6.719-48.449 6.719-73.57 0-108.152-39.992-206.961-105.617-283.086l45.219-45.602c77.195 87.801 124.375 202.602 124.375 328.688zM840.945 164.914l-89.469 90.219c-12.453 12.555-32.867 12.594-45.363.082l-.191-.191c-12.379-12.391-12.418-32.707-.082-45.148L840.719 73.868a501.667 501.667 0 0 1 45.336 45.328l-45.383 45.379c.047.055.094.117.141.176s.086.109.133.164zm-591.629 628.43c73.059 55.703 163.926 89.188 262.684 89.188V736.001c0-17.602 14.398-32 32-32s32 14.398 32 32V877.36c70.055-10.516 134.727-37.555 189.781-77.355l45.805 45.801c-68.105 51.375-149.965 84.672-238.816 95.668-17.957 2.223-35.961 4.305-54.473 4.543-2.141.027-4.148.523-6.297.523-116.492 0-223.398-40.273-308.27-107.227-16.879-13.316-32.961-27.543-47.977-42.895-74.734-76.402-124.91-176.695-138.34-288.398-2.117-17.609-3.398-35.457-3.629-53.586-.027-2.164-.324-4.262-.324-6.434 0-126.141 47.223-241 124.473-328.809l45.387 45.387C117.531 240.75 77.437 339.691 77.437 448H224c17.602 0 32 14.398 32 32s-14.398 32-32 32H82.691c13.703 92.168 56.105 174.996 118.273 238.828l86.539-87.266c12.453-12.559 32.863-12.594 45.359-.086l.191.191c12.383 12.395 12.418 32.711.082 45.148l-83.82 84.527zM137.945 119.195a501.238 501.238 0 0 1 45.254-45.254l135.152 135.156c12.445 12.445 12.445 32.809 0 45.254s-32.809 12.445-45.254 0L137.945 119.195z" data-tags="dashboard"/><glyph unicode="" d="M513.498 945.689c-275.75 0-499.187-223.469-499.187-499.187S237.748-52.685 513.498-52.685s499.187 223.469 499.187 499.187-223.437 499.187-499.187 499.187zm0-76.781c98.003 0 188.128-33.875 259.878-90.125L181.19 186.624c-56.256 71.75-90.067 161.842-90.067 259.878 0 232.902 189.44 422.406 422.374 422.406zm0-844.813c-97.997 0-188.122 33.875-259.872 90.125l592.186 592.154c56.192-71.75 90.061-161.843 90.061-259.872 0-232.909-189.434-422.406-422.374-422.406z" data-tags="deny"/><glyph unicode="" d="M1001.498 446.502c0-269.69-218.432-488-488-488-269.562 0-488 218.31-488 488 0 269.562 218.438 488 488 488 269.568 0 488-218.438 488-488zM576 192v384H448V192h-64v-64h256v64h-64zm0 576H448V640h128v128z" data-tags="description"/><glyph unicode="" d="M896 576L640 832V640H384c-105.602 0-192-86.398-192-192V64h128v384c0 34.688 29.312 64 64 64h256V320l256 256z" data-tags="directions"/><glyph unicode="" d="M704 832H320c-105.996 0-192-85.937-192-192V256c0-106.063 86.004-192 192-192h384c106.004 0 192 85.937 192 192v384c0 106.063-85.996 192-192 192zM576 320v128H448V192H320v192c0 106.063 85.937 192 192 192h64v128l224-192-224-192z" data-tags="directions2"/><glyph unicode="" d="M704 192h128v-64H704v64zm0 384h128v-64H704v64zm0-128h128v-64H704v64zM256 768h320v-64H256v64zm448-448h128v-64H704v64zM256 576h320v-64H256v64zm0-128h384v-64H256v64zm473.625 512H128V-64h832v793.625L729.625 960zM896 0H192v896h448V640h256V0zm0 704H704v192h19.875L896 723.871V704zM256 320h384v-64H256v64zm0-128h320v-64H256v64z" data-tags="documentation"/><glyph unicode="" d="M729.625 960H320V768H64V-64h640v192h256v601.625L729.625 960zM640 192V0H128v704h256V448h256V192zm0 320H448v192h19.871L640 531.812V512zm256-320H704v345.625L473.625 768H384v128h256V640h256V192zm0 512H704v192h19.871L896 723.812V704zM192 128h384V64H192v64zm0 128h384v-64H192v64zm0 128h384v-64H192v64zm0 128h128v-64H192v64z" data-tags="duplicate"/><glyph unicode="" d="M896 256H663c-10.317 7.34-21.254 13.625-33.19 17.439 6.438 15.219 11.379 30.842 15.686 46.561H896v-64zm0 192H656.811c1.813-21.312 2.189-42.657.25-64H896v64zm0 128H622.437c9.811-20.685 17.376-42.093 23.187-64H896v64zm128 153.625V128H794.251l-63.942 64H960v448H704v256H448V749.407c-20.686 9.658-41.877 18.061-64 23.969V960h409.624L1024 729.625zm-64-5.811L787.87 896H768V704h192v19.814zM756.498-6.842l-45.747-45.754c-12.691-12.717-33.19-12.717-45.875 0L523.75 88.434c-12.378 12.442-12.378 32.224-.627 44.909l-61.682 61.747.747.781-.064.097c-110.688-87.687-271.251-81.594-373.498 20.595-110.066 110.125-110.125 288.627 0 398.752s288.621 110.029 398.746 0c102.688-102.688 108.25-264.064 19.501-374.784l.314.346 61.626-61.594.813.87c12.627 12.627 33.128 12.627 45.875 0l140.998-141.12c12.749-12.627 12.691-33.158 0-45.875zm-327.25 563.968c-77.998 78.029-204.501 78.029-282.44.09-77.997-77.997-77.997-204.467 0-282.463 77.939-78.004 204.442-78.004 282.44 0 78.002 77.996 77.938 204.467 0 282.374z" data-tags="review"/><glyph unicode="" d="M513.498 232.128c-118.182 0-214.374 96.185-214.374 214.374 0 118.182 96.192 214.374 214.374 214.374 118.189 0 214.374-96.192 214.374-214.374 0-118.189-96.186-214.374-214.374-214.374zm0 544c35.002 0 68.064-7.002 99.75-17.127l-99.75 199.501-99.75-199.501c31.693 10.125 64.755 17.127 99.75 17.127zm291.5-179.13l70.566 211.565-211.565-70.56c60.499-31.379 109.626-80.506 140.998-141.005zM363.002 738.003l-211.501 70.56 70.502-211.565c31.373 60.499 80.499 109.626 140.998 141.005zm662.496-291.501l-199.494 99.75c10.125-31.692 17.12-64.755 17.12-99.75 0-35.002-6.995-68.064-17.12-99.75l199.494 99.75zm-841.626 0c0 34.995 7.002 68.058 17.126 99.75L1.497 446.502l199.501-99.75c-10.125 31.686-17.126 64.748-17.126 99.75zM664 155.001l211.565-70.566L804.999 296c-31.373-60.5-80.499-109.626-140.998-140.999zM222.003 296L151.501 84.435l211.501 70.566C302.503 186.374 253.376 235.5 222.004 296zm291.495-179.124c-34.995 0-68.058 6.995-99.75 17.126l99.75-199.501 99.75 199.501c-31.686-10.131-64.749-17.126-99.75-17.126z" data-tags="environment-settings"/><glyph unicode="" d="M691.373 704l77.005-76.878-179.251-179.155 179.251-179.219L691.373 192 512.25 371.154 332.999 192l-76.621 76.748 179.123 179.219-179.123 179.155L332.999 704 512.25 524.78 691.373 704zM1024 620.812V275.186L748.998-64H275.372L-.001 275.186v345.626L275.372 960h473.626L1024 620.812zm-76.813-338.72v331.814l-218.31 269.28H295.501L76.813 613.842V282.156L295.501 12.812h433.376l218.31 269.28z" data-tags="error"/><glyph unicode="" d="M697.498 896H326.375L64.001 633.561V262.438L326.375 0h371.123L960 262.438v371.123L697.498 896zM576 128H448v128h128V128zm0 256H448v320h128V384z" data-tags="error2"/><glyph unicode="" d="M967.203 47.328C821.5 299.687 761.922 402.898 640 614.062v281.937h32c17.602 0 32 14.398 32 32s-14.398 32-32 32H352c-17.602 0-32-14.398-32-32s14.398-32 32-32h32V614.05C262.078 402.874 202.484 299.663 56.766 47.261c-13.25-22.949-13.203-51.242.063-74.188a74.22 74.22 0 0 1 64.25-37.074h781.922c26.5 0 50.984 14.191 64.219 37.148a74.204 74.204 0 0 1-.016 74.18zM251.172 256L448 596.937V896h128v-64h-64v-64h64V640h-64v-64h76.086l73.891-128H512v-64h186.922l73.891-128H251.172z" data-tags="experimental"/><glyph unicode="" d="M1025.496 34.655s-204.813 102.342-512.058 0c-307.13-102.406-512 0-512 0L138.001 853.81s204.806-68.282 375.437 0c170.688 68.25 375.494 0 375.494 0l136.563-819.155z" data-tags="feature-layer"/><glyph unicode="" d="M128 960h768v-64H128v64zM448 0h128l64 512H384zm-64 576h256l256 256H128z" data-tags="filter"/><glyph unicode="" d="M1001.496 446.502c0-269.568-218.432-488-488-488-269.562 0-488 218.432-488 488 0 269.562 218.438 488 488 488 269.568 0 488-218.438 488-488zM752.128 696.128L421.125 365.126 287.749 498.752l-74.373-74.375 207.749-207.75 405.376 405.12-74.373 74.381z" data-tags="grant"/><glyph unicode="" d="M512 832c0-70.692-57.308-128-128-128s-128 57.308-128 128c0 70.692 57.308 128 128 128s128-57.308 128-128zm-64-256c0 49.375 19.219 93.937 49.937 128H256c-70.688 0-128-57.375-128-128V320c0-35.375 28.629-64 64-64h64c0-35.375 28.629-64 64-64v128c0 88.5 60.5 162.437 142.094 184.629C453.184 526.688 448 550.754 448 576zm320 0c0-70.692-57.308-128-128-128s-128 57.308-128 128c0 70.692 57.308 128 128 128s128-57.308 128-128zm0-128H512c-70.688 0-128-57.375-128-128V64c0-35.375 28.629-64 64-64h64c0-35.375 28.629-64 64-64h128c35.375 0 64 28.625 64 64h64c35.375 0 64 28.625 64 64v256c0 70.625-57.312 128-128 128z" data-tags="group"/><glyph unicode="" d="M736 964.312c-159.066 0-288-128.996-288-288 0-46.43 12.012-89.656 31.512-128.488L64 132.312v-128h128l64 64h127l.664 127.664.336.336h128v128l95.512 95.512c38.836-19.504 82.063-31.512 128.488-31.512 159.066 0 288 128.879 288 288 0 159.004-128.934 288-288 288zM832 640H704v128h128V640z" data-tags="key"/><glyph unicode="" d="M963.055 534.047L598.047 899.055a33.122 33.122 0 0 1-23.5 9.746c-8.434 0-16.934-3.25-23.437-9.746L9.747 357.625C3.501 351.375.001 343 .001 334.254V114.676c0-8.75 3.5-17.246 9.746-23.5l145.492-145.43A33.219 33.219 0 0 1 178.743-64h219.512c8.812 0 17.184 3.5 23.437 9.746l541.363 541.309c12.992 12.996 12.992 33.996 0 46.992zM385.437 0h-206.75L63.999 114.625v206.75l517.012 529.844 334.238-334.266L385.437 0zM384 224c0-53.019-42.981-96-96-96s-96 42.981-96 96 42.981 96 96 96 96-42.981 96-96z" data-tags="labels"/><glyph unicode="" d="M768 256H0v384h768l256-192z" data-tags="tag"/><glyph unicode="" d="M1025.498 670.502l-512-288-512 288 512 288zm-512-416.499l-452 254.246-60-33.747 512-288 512 288-60 33.747zm0-189.754l-452 254.253-60-33.754 512-288 512 288-60 33.754z" data-tags="layers"/><glyph unicode="" d="M322.252 576L642.31 896H416L0 480 416 64h226.252l-320 320H1024v192z" data-tags="left-arrow"/><glyph unicode="" d="M701.747 576L381.689 896H608l416-416L608 64H381.747l320 320H0v192z" data-tags="right-arrow"/><glyph unicode="" d="M832 0H64v768h448v64H0V-64h896v448h-64zM672 704c-265.125 0-480-214.937-480-480 0-10.754.934-21.375 1.625-32h128c-.941 10.625-1.625 21.246-1.625 32 0 194.094 157.937 352 352 352h96.129l-192-192h128L960 640 704.129 896h-128l192-192H672z" data-tags="link-external"/><glyph unicode="" d="M916.262 385.746L784.496 527.379c2.43-36.195-1.098-72.387-11.359-103.723l90.559-90.477c65.805-65.805 65.805-172.895 0-238.699-31.727-31.805-74.105-49.277-119.148-49.277-45.121 0-87.508 17.473-119.309 49.359L450.54 269.253c-65.723 65.801-65.723 172.734 0 238.465 19.43 19.5 43.559 33.523 67.215 39.324-2.664 4.852-5.246 9.48-8.926 13.234l-43.008 46.766c-27.035-12.922-49.277-28.195-67.848-46.766-45.82-45.902-71.133-106.93-71.133-171.867 0-64.867 25.312-125.895 71.133-171.727L572.672 41.991c45.902-45.906 106.93-71.207 171.875-71.207 64.785 0 125.809 25.301 171.715 71.129 94.789 94.793 94.789 249.039 0 343.832zm-637.52 462.348c45.125 0 87.43-17.465 119.23-49.27l174.699-174.621c65.723-65.723 65.723-172.734 0-238.539-19.348-19.348-43.398-33.371-67.375-39.09 2.742-4.934 5.324-9.633 9.168-13.477l45.516-45.516c25.848 12.609 47.234 27.578 65.258 45.516 94.707 94.789 94.707 248.879 0 343.672L450.539 851.382c-45.902 45.91-106.93 71.211-171.797 71.211-64.863 0-125.887-25.301-171.797-71.211-45.898-45.902-71.207-106.934-71.207-171.797s25.309-125.887 71.207-171.797l131.77-141.711c-2.434 36.191 1.098 72.387 11.359 103.641l-90.559 90.641c-31.809 31.727-49.352 74.105-49.352 119.227 0 45.125 17.543 87.43 49.352 119.238 31.805 31.805 74.105 49.27 119.227 49.27z" data-tags="link"/><glyph unicode="" d="M880.57 693.173c10.37-11.839 24.701-30.081 40.348-55.253 30.529-49.816 66.438-131.904 63.564-237.118-.623-103.763-45.106-229.926-145.889-322.599-98.707-92.861-254.088-143.76-403.545-114.117C284.737-9.283 151.39 97.249 87.762 232.253 22.37 367.609 28.134 521.365 75.827 636.945c46.831 117.513 129.618 194.883 195.138 237.487 66.693 42.818 115.999 57.117 125.499 59.909 39.478 11.384 78.628 5.771 105.022-9.877 26.832-16.339 40.987-40.298 40.827-67.361-2.539-54.953-44.994-97.247-91.53-111.292-6.067-1.637-37.059-8.252-82.037-31.679-44.004-23.509-103.146-68.592-141.761-144.693-38.911-74.186-54.351-181.511-16.142-283.89C247.894 183.64 340.174 91.676 457.035 59.689c116.126-34.481 248.739-6.367 341.474 65.914 94.212 71.804 146.016 180.723 155.373 277.118 11.807 97.482-14.873 179.67-40.34 231.116-13.013 25.97-25.515 45.322-34.704 57.976l-14.402 19.238s5.612-6.215 16.134-17.88z" data-tags="loading-indicator"/><glyph unicode="" d="M0 960V-64h1024V960H0zm544.901-382.3l.701-3.4c5.596-27.602 8.699-53.402-14.751-66.099-16.625-9.001-25.329-24.499-32.425-37.002-8.95-15.898-13.251-21.898-22.876-21.898-5.1 0-9.098 2.698-15.575 7.7-7.977 6.098-17.874 13.599-32.952 13.599-22.149 0-40.172-19.4-40.172-43.197 0-15.201-13.476-43.3-32.676-43.3-15.724 0-20.874 5.499-24.402 11.796-9.498 17.003-21.299 38.2-48.374 38.2-27.177 0-49.3-23.501-49.3-52.301 0-9.201 1.9-16.297 3.528-22.497 1.398-5.299 2.647-9.902 2.647-15.304 0-7.798-3.277-13.696-7.373-21.299-4.854-8.899-10.849-19.896-10.849-34.898 0-19.599 17.997-35.599 40.146-35.599 12.549 0 20.9 3.297 27.628 5.898 6.252 2.499 10.624 3.999 17.9 3.302 3.323-.302 6.799-9.601 6.799-16 0-10.301-8.801-19.103-18.923-29.199-16.451-16.405-38.999-38.805-20.429-75.802 7.05-14.203 24.253-18.202 40.878-22.103 7.675-1.797 13.302-2.995 17.874-4.198 0 0 8.177-10.849 10.225-17.147-.548-4.051.425-7.352.425-7.352-.148-4.803-1.326-10.051-5.448-16.2-8.1-12.201-17.551-19.103-27.576-26.399C289.603 32.399 273.025 29.9 272.549-.001H64.001v896h687.324C752.277 877.5 722.453 857 722.453 857l-31.355-18.601c-33.72-21.499-72.12-54.502-72.12-81.9 0-12.099 4.797-20.7 8.622-27.5 3.2-5.699 5.028-9.103 5.028-13.399 0-6.103-4.029-10.102-13.153-17.9-7.951-6.902-17.05-14.505-21.176-26.9-1.372-4.204-2.048-8.402-2.048-12.8 0-4.403.927-9.8 2.028-15.601.896-4.9 2.847-15.099 1.347-17.5 0 0-1.751-1.3-8.274-1.3l-5.55.2c-11.873 0-23.997-9.702-31.401-18.601-5.473-6.6-11.571-16.901-9.498-27.5zM960 0H664.601c-6.6 39.05-43.151 40.248-69.35 49.802-9.201 3.4-18.704 6.799-27.454 11.3C556.477 67 556.6 79.851 558.351 89.6c0 0 3.251 9.702 2.898 11.802l.051.097-.051.051c-.174 1.101-.374 2.099-.374 3.502 0 7.347 6.799 10.849 22.349 18.35 16.251 7.946 38.426 18.447 38.426 44.498 0 9.349-4.126 15.601-6.902 19.799-1.725 2.601-2.248 3.502-2.248 4.25 0 5.499 2.15 9.149 10.598 16.753 9.052 8.1 20.101 19.2 20.101 38.098v29.701c0 3 8.602 6.298 19.348.998 5.299-2.499 13.153-6.001 22.876-6.001 21.524 0 33.249 15.8 41.574 27.3 7.7 10.604 10.624 16.502 18.125 15.304 7.501-1.3 4.751-1.603 10.378-13.102 3.871-7.997 8.346-17.199 16.65-24.402 14.52-12.698 31.324-16.896 48.2-18.196 16.799-2.703 39.598-4.403 63.872-.2l5.376.895c11.75 2.105 21.975 2.704 31.401 2.151 0 0 2.847-.696 4.398-.2 12.477-1.398 22.999-5.647 31.401-14.648l3.2-7.951c.097-.148-.103-.297 0-.451V0z" data-tags="maps"/><glyph unicode="" d="M832 640H704.203c-.32 61.797-1.219 117.145-3.43 128C685.945 841.031 621.406 896 544 896c-88.828 0-160-72.152-160-160v-96H256L128-64h832L832 640zm-384 .316V736c0 52.937 43.063 96 96 96s96-43.063 96-96v-96H448v.316z" data-tags="marketplace"/><glyph unicode="" d="M688 576c-42 3.5-109-133.625-144-123.125-17.125 5.121-25.688 40.371-96 128-37.312 46.496-56 64-104.688-7.129C311.375 527.125 174 433 155.999 424.875c-6.718-3.031-16.234.098-27.999 2.512V320h640v148.055C737.672 521.282 713.484 573.844 688 576zm16 96c0-53.019-42.981-96-96-96s-96 42.981-96 96 42.981 96 96 96 96-42.981 96-96zm192 96v128H0V192h128V64h896v704H896zM64 256v576h768V256H64zm896-128H192v64h704v512h64V128z" data-tags="media"/><glyph unicode="" d="M960 768h-64V320H576V128h128V0H320v128h128v192H128v448H64v128h896V768zM768 448v320H256V448h512z" data-tags="media2"/><glyph unicode="" d="M896 848c0-44.186-35.814-80-80-80H144c-44.186 0-80 35.814-80 80v32c0 44.185 35.814 80 80 80h672c44.186 0 80-35.815 80-80v-32zm0-352c0 44.185-35.814 80-80 80H144c-44.186 0-80-35.815-80-80v-32c0-44.186 35.814-80 80-80h672c44.186 0 80 35.814 80 80v32zm0-384c0 44.185-35.814 80-80 80H144c-44.186 0-80-35.815-80-80V80c0-44.186 35.814-80 80-80h672c44.186 0 80 35.814 80 80v32z" data-tags="menu"/><glyph unicode="" d="M704 960H257.059C221.137 960 192 929.781 192 892.484V3.441C192-33.782 221.137-64 257.059-64H704c35.906 0 64 30.219 64 67.441v889.043C768 929.781 739.906 960 704 960zM479.992-22.23c-29.969 0-54.211 24.297-54.211 54.266s24.242 54.195 54.211 54.195c29.895 0 54.227-24.227 54.227-54.195S509.887-22.23 479.992-22.23zM704 128H256v704h448V128z" data-tags="mobile"/><glyph unicode="" d="M336.662 953.083c-76.101-57.189-133.866-131.218-171.08-213.951 51.622-138.619 114.713-274.947 191.142-407.326S519.67 76.625 613.907-37.391c90.256-9.139 183.249 3.873 270.827 41.184 21.601 9.203 27.724 36.638 11.996 54.071-48.091 53.3-94.031 109.175-137.839 167.349-11.231 14.914-32.27 18.043-47.156 6.775l-51.061-38.652c-15.382-11.644-37.488-7.171-47.134 9.536l-240.068 415.81c-9.646 16.707-2.466 38.088 15.309 45.587l59.004 24.894c17.201 7.257 25.011 27.043 17.711 44.226-28.477 67.026-53.896 134.749-76.009 203.047-7.233 22.338-34.054 30.752-52.825 16.647z" data-tags="phone"/><glyph unicode="" d="M426.682 362.659L512-64l512 1024L0 448z" data-tags="navigation"/><glyph unicode="" d="M1025.498 446.502l-192 192v-128H576V768h128L513.498 958.502 321.498 768h128V510.502H192v128l-190.502-192 190.502-192V384h257.498V126.502h-128l192-192 192 192H576V384h257.498V254.502z" data-tags="pan"/><glyph unicode="" d="M192 384V-64h640v448H192zM704 64H320v192h384V64zM192 960V512h640v448H192zm512-320H320v192h384V640zM0 640V128h320v128H128v256h768V256H768V128h256v512z" data-tags="printer"/><glyph unicode="" d="M502.688-28.437c-204.781.063-386.344 130.375-451.844 324.25-53.563 158.688-19.406 334.688 88.906 462l309.125-347.437 183.469-420.75c-42.344-12-85.937-18.062-129.656-18.062zM236.969 844.437c35.344 23.75 73.312 42.5 113 55.875 49.594 16.812 100.937 25.25 152.625 25.25 113.625 0 223.156-40.437 309.656-114.188L507.531 539.812 236.968 844.437zm405.125-553.625l234.688-137.437c-35.094-44.563-77.219-81.937-125.5-111.437L642.094 290.813zm-29.782 168.251l286.375 255.063c23.563-35.188 42.312-73.125 55.812-112.875 37.156-110 32.875-228.812-11.906-335.812L612.312 459.064z" data-tags="pie-chart"/><glyph unicode="" d="M960 128V64H64v768h64V128h64v448h192V128h64v576h192V128h64v256h192V128h64z" data-tags="chart"/><glyph unicode="" d="M128 128v704H64V64h896v64zm192 262.398c32.621 0 62.09 13.012 83.93 33.922l119.461-71.684c-2.926-10.449-4.992-21.25-4.992-32.637 0-67.156 54.445-121.602 121.602-121.602s121.602 54.445 121.602 121.602c0 38.512-18.258 72.43-46.195 94.711L815.42 648.069c5.473-.754 10.902-1.672 16.582-1.672 67.156 0 121.602 54.445 121.602 121.602s-54.445 121.602-121.602 121.602S710.4 835.156 710.4 767.999c0-38.512 18.258-72.43 46.195-94.711L656.583 439.929c-5.473.754-10.902 1.672-16.582 1.672-32.617 0-62.09-13.012-83.926-33.918L436.61 479.359c2.926 10.453 4.992 21.254 4.992 32.641 0 67.156-54.445 121.602-121.602 121.602S198.398 579.157 198.398 512 252.843 390.398 320 390.398z" data-tags="line-chart"/><glyph unicode="" d="M512 960C229.189 960 0 730.809 0 448S229.189-64 512-64c282.808 0 512 229.19 512 512S794.808 960 512 960zm64-896H448v128h128V64zm37.248 396.499C569.189 418.624 576 420.749 576 366.374V320H441.247v46.374c0 56.499 31.686 80.25 66.752 111.251 9.69 8.627 20.001 17.875 30.625 28.378l18.752 17.747c36.747 36.749 71.371 71.251 71.371 125.126 0 63.124-39.622 103.872-100.998 103.872-53.248 0-79.251-24.748-92.749-88.25l-4.998-24.499H320l2.501 33.747c13.627 100.378 88.813 158.253 206.246 158.253 116 0 191.002-70.752 191.002-180.25 0-85.126-46.125-135.002-106.501-191.251z" data-tags="question"/><glyph unicode="" d="M768 704H256v64h512v-64zm-64-128v64H320v-64h384zM64 896h896V512h64v448H0V320h384v64H64v512zm960-672c0 158.809-129.19 288-288 288S448 382.809 448 224c0-76.878 29.939-149.217 84.378-203.655l4.499-4.531 58.874 58.906-4.563 4.531c-38.688 38.752-60 90.158-60 144.75 0 112.966 91.878 204.844 204.813 204.844s204.813-91.878 204.813-204.844c0-55.034-22.502-106.311-60.749-144.064L768.001 192.001v-256h256l-85.312 85.312c53.184 52.876 85.312 125.222 85.312 202.688z" data-tags="resend-invitation"/><glyph unicode="" d="M448 512h128V384H448v128zM848.434 64h-17.933c110.31 91.565 180.685 229.44 180.685 384 0 275.686-223.501 499.187-499.186 499.187-275.688 0-499.189-223.501-499.189-499.187 0-137.875 55.872-262.624 146.189-352.999l87.936 87.936C179 250.873 136.933 344.627 136.933 448c0 206.809 168.256 375.065 375.067 375.065 206.808 0 375.064-168.256 375.064-375.065 0-107.623-46.189-204.064-119.064-272.435V320H640V-64h384V64H848.434z" data-tags="rotate"/><glyph unicode="" d="M885.499 896H138.875c-41.314 0-74.688-33.312-74.688-74.56V224c0-19.687 7.749-38.81 21.874-52.813L235.373 21.875C249.248 7.872 268.499 0 288.187 0h597.312c41.31 0 74.688 33.376 74.688 74.688V821.44c0 41.248-33.378 74.56-74.688 74.56zM512.187 64h-192v192h192V64zm320 0h-64v256h-512V92.435l-64 56.813v160.064c0 41.312 33.374 74.688 74.688 74.688h490.624c41.31 0 74.688-33.376 74.688-74.688V64zm0 448h-640v320h640V512z" data-tags="save"/><glyph unicode="" d="M902.374 485.811L1010.688 560l-28.25 86.937-131.187-3.622-46.253 63.558 44 123.686-73.933 53.69-104-80-74.752 24.25-37.126 125.875h-91.373l-37.126-125.875-74.752-24.25-104 80-73.933-53.69 44-123.686-46.253-63.558-131.187 3.622L16.313 560l108.25-74.189v-78.624l-108.25-74.189 28.25-86.938 131.187 3.629 46.253-63.565-44-123.686 73.933-53.69 104 80 74.752-24.25 37.126-125.875h91.373l37.126 125.875 74.752 24.25 104-80 73.933 53.69-44 123.686 46.253 63.565 131.187-3.629 28.25 86.938-108.314 74.189v78.624zM513.498 260.877c-102.496 0-185.626 83.123-185.626 185.626 0 102.496 83.13 185.626 185.626 185.626 102.502 0 185.626-83.13 185.626-185.626 0-102.502-83.123-185.626-185.626-185.626z" data-tags="settings"/><glyph unicode="" d="M610.752 631.872l94.746 85.568-24.685 59.494-127.501-6.496-35.872 35.872 6.496 127.501-59.501 24.691-85.562-94.752h-50.746l-85.568 94.752-59.494-24.691 6.496-127.501-35.872-35.872-127.565 6.496L1.497 717.44l94.752-85.568v-50.746L1.497 495.564l24.627-59.501 127.565 6.496 35.872-35.872-6.496-127.501 59.494-24.685 85.568 94.746h50.746l85.562-94.746 59.501 24.685-6.496 127.501 35.872 35.872 127.501-6.496 24.685 59.501-94.746 85.562v50.746zM353.498 484.876c-67.123 0-121.626 54.496-121.626 121.626 0 67.123 54.502 121.626 121.626 121.626 67.13 0 121.626-54.503 121.626-121.626 0-67.13-54.496-121.626-121.626-121.626zM875.123 220l-15.501 26.938 10.003 92.25-41.69 24.128-74.874-54.816h-31.123l-74.874 54.816-41.69-24.128 9.997-92.25L599.813 220l-84.877-37.44v-48.122l84.877-37.44 15.558-26.938-9.997-92.25 41.69-24.122 74.874 54.81h31.123l74.874-54.81 41.69 24.122-10.003 92.25 15.501 26.938 84.941 37.44v48.122L875.123 220zM737.498 62.502c-52.998 0-96 42.995-96 96 0 52.998 43.002 96 96 96 53.005 0 96-43.002 96-96 0-53.005-42.995-96-96-96z" data-tags="settings2"/><glyph unicode="" d="M729.31 640l-63.501-67.872 45.312-45.254 45.254 49.127h40.813l22.624-30.938-251.685-251.686c-16.757 11.123-35.694 19.251-56.128 23.373v476.998h32l32-25.747v-64h64v89.747l-160 166.253-160-166.253v-89.747h64v64l32 25.747h32V316.75c-20.437-4.122-39.374-12.25-56.128-23.373L140.183 545.063l22.624 30.938h40.813l45.254-49.127 45.248 45.254L230.685 640H-.001V409.312l67.87-63.501 45.254 45.312-49.125 45.254v40.813l30.936 22.624 251.688-251.686c-16.75-25.255-26.624-55.501-26.624-88.128 0-88.378 71.621-160 160-160 88.376 0 160 71.622 160 160 0 32.627-9.877 62.873-26.624 88.128l251.685 251.686 30.939-22.624v-40.813l-49.128-45.254 45.254-45.312 67.874 63.501V640h-230.69zM480 64c-53 0-96 43.001-96 96s43 96 96 96c52.997 0 96-43.002 96-96s-43.003-96-96-96z" data-tags="share"/><glyph unicode="" d="M1024 960V-64H384v448h128V64h384v768H512V576H384v384h640zM235.44 347.954L131.681 448H768v64H131.681L235.44 612.046 207.486 640 47.374 480l160.112-160 27.954 27.954z" data-tags="sign-out"/><glyph unicode="" d="M227.238 576c-1.199 10.645-3.238 21.043-3.238 32 0 158.812 129.25 288 288.188 288C670.876 896 800 766.812 800 608S670.875 320 512.188 320c-17.672 0-32-14.328-32-32s14.328-32 32-32c160.699 0 296.258 108.496 338.172 256h54.914c29.156 0 52.793 23.637 52.793 52.793v86.414c0 29.156-23.637 52.793-52.793 52.793H850.36c-41.914 147.504-177.473 256-338.172 256C318 960 160 802.063 160 608c0-10.801.664-21.445 1.621-32h65.617zm508.766 32c0 123.773-100.359 224-223.816 224-123.902 0-224.184-100.227-224.184-224 0-123.625 100.281-224 224.184-224 123.457 0 223.816 100.375 223.816 224zM1013.32-27.141C1000.257 147.156 686.304 192 512.008 192 338.215 192 23.715 146.988 10.645-27.141 9.704-39.996 8.829-52.145 7.981-64h1008.004c-.848 11.855-1.723 24.004-2.664 36.859z" data-tags="support"/><glyph unicode="" d="M512.156 452.125c103.531 0 187.691 84.188 187.691 187.875 0 103.812-84.16 187.875-187.691 187.875-103.906 0-188-84.063-188-187.875 0-103.688 84.094-187.875 188-187.875zm370.153-230C872.661 350.875 640.75 384 512 384c-128.375 0-360.688-33.25-370.344-161.875C134.5 124.5 130.156 58.254 128.625 0H895.34c-1.496 58.254-5.875 124.5-13.031 222.125z" data-tags="user"/><glyph unicode="" d="M513.496 945.688c-275.684 0-499.188-223.434-499.188-499.188 0-275.691 223.504-499.184 499.188-499.184 275.75 0 499.188 223.492 499.188 499.184 0 275.754-223.438 499.188-499.188 499.188zm0-921.559c-232.934 0-422.371 189.434-422.371 422.371s189.437 422.41 422.371 422.41c232.941 0 422.375-189.473 422.375-422.41S746.437 24.129 513.496 24.129zM576 512v256H448V384h384v128H576z" data-tags="time-clock"/><glyph unicode="" d="M640 896v64H320v-64H64V768h832v128zM192-64h576l64 768H128l64-768zm448 672c0 17.602 14.398 32 32 32s32-14.398 32-32V32c0-17.602-14.398-32-32-32s-32 14.398-32 32v576zm-192 0c0 17.602 14.398 32 32 32s32-14.398 32-32V32c0-17.602-14.398-32-32-32s-32 14.398-32 32v576zm-192 0c0 17.602 14.398 32 32 32s32-14.398 32-32V32c0-17.602-14.398-32-32-32s-32 14.398-32 32v576z" data-tags="trash"/><glyph unicode="" d="M256 320h192V0h128v320h192L512 576zm610.563 358.625c-20.875 151.934-143.5 268.688-292.125 268.688-111.375 0-208.125-65.437-258.625-161.969-13.875 3.75-28.188 6.375-43 6.375-82 0-143.063-61.094-148.688-138.441-69.5-35.684-117.75-107.781-117.75-191.09C6.375 348.997 98.875 256 192 256v76.812c-49.312 0-108.812 57.688-108.812 129.375 0 51.656 29.125 98.688 76 122.777l38.375 19.719 3.188 43.035c2.875 39.563 32.5 67.188 72.063 67.188 6.188 0 13.688-1.184 22.937-3.688l59.563-16.098 28.563 54.625c38.937 74.504 112 120.754 190.563 120.754 107.312 0 200.188-86.969 216.063-202.348l6.5-47.492 45.563-14.973c58.75-19.379 98.25-74.566 98.25-137.344 0-75.098-59.5-135.531-108.812-135.531v-76.812c90.812 0 185.625 93.937 185.625 212.344 0 98.25-63.438 181.434-151.063 210.281z" data-tags="upload"/><glyph unicode="" d="M768 192L512-64 256 192h192v320h128V192h192zm98.56 486.623c-20.87 151.936-143.494 268.691-292.122 268.691-111.373 0-208.128-65.44-258.624-161.97-13.875 3.75-28.192 6.374-43.002 6.374-82.003 0-143.066-61.094-148.685-138.438C54.623 617.594 6.373 545.498 6.373 462.189c0-113.19 92.499-206.188 185.626-206.188h128v76.812h-128c-49.312 0-108.813 57.69-108.813 129.376 0 51.654 29.126 98.688 76 122.778l38.374 19.718 3.187 43.034c2.874 39.565 32.499 67.187 72.064 67.187 6.189 0 13.69-1.184 22.938-3.686l59.565-16.096 28.557 54.624c38.938 74.502 112 120.755 190.566 120.755 107.309 0 200.186-86.97 216.064-202.349l6.496-47.494 45.562-14.97c58.752-19.379 98.253-74.566 98.253-137.344 0-75.098-59.501-135.533-108.813-135.533h-128v-76.812h128c90.81 0 185.626 93.938 185.626 212.345 0 98.247-63.437 181.434-151.066 210.278z" data-tags="download"/><glyph unicode="" d="M1011.437 69.191l-196.25 196.371c-16.75 16.625-43.75 16.625-60.379 0l-1.121-1.129-81.063 81.063-.441-.434c116.879 145.777 109.504 358.25-25.684 493.437-144.937 144.871-380 145-524.937 0-145-145.004-144.937-380 0-525.004 134.566-134.527 345.937-142.559 491.684-27.121l.129-.098-1.063-1.063 81.312-81.281c-15.566-16.684-15.5-42.742.812-59.121l196.316-196.25c16.684-16.75 43.684-16.75 60.367 0l60.316 60.25c16.691 16.75 16.746 43.75 0 60.379zm-441.5 320.934c-102.688-102.723-269.188-102.723-371.812 0-102.688 102.688-102.754 269.188 0 371.902 102.625 102.566 269.125 102.566 371.812-.121 102.625-102.594 102.688-269.094 0-371.781zM448 767.992l-127.996.004V640H192V512h128.004V383.996L448 383.992V512h128v128H448z" data-tags="zoom-in-magnifying-glass"/><glyph unicode="" d="M1011.436 69.19l-196.25 196.371c-16.749 16.627-43.75 16.627-60.378 0l-1.12-1.126-81.062 81.062-.442-.435c116.877 145.779 109.504 358.253-25.683 493.44-144.941 144.87-380 144.998-524.941 0-144.998-145.005-144.934-380 0-525.005 134.567-134.528 345.939-142.56 491.687-27.123l.128-.096-1.063-1.062 81.312-81.28c-15.565-16.685-15.501-42.746.813-59.123l196.314-196.25c16.684-16.749 43.686-16.749 60.37 0l60.314 60.25c16.691 16.749 16.749 43.75 0 60.378zM569.939 390.124c-102.688-102.72-269.19-102.72-371.814 0-102.688 102.688-102.752 269.19 0 371.904 102.624 102.566 269.126 102.566 371.814-.122 102.624-102.592 102.688-269.094 0-371.782z" data-tags="search"/><glyph unicode="" d="M1011.437 69.191l-196.25 196.371c-16.75 16.625-43.75 16.625-60.379 0l-1.121-1.129-81.063 81.063-.441-.434c116.879 145.777 109.504 358.25-25.684 493.437-144.937 144.871-380 145-524.937 0-145-145.004-144.937-380 0-525.004 134.566-134.527 345.937-142.559 491.684-27.121l.129-.098-1.063-1.063 81.312-81.281c-15.566-16.684-15.5-42.742.812-59.121l196.316-196.25c16.684-16.75 43.684-16.75 60.367 0l60.316 60.25c16.691 16.75 16.746 43.75 0 60.379zm-441.5 320.934c-102.688-102.723-269.188-102.723-371.812 0-102.688 102.688-102.754 269.188 0 371.902 102.625 102.566 269.125 102.566 371.812-.121 102.625-102.594 102.688-269.094 0-371.781zM192 640h384V512H192v128z" data-tags="zoom-out-magnifying-glass"/><glyph unicode="" d="M832 512H192c-35.199 0-64-28.801-64-64V0c0-35.199 28.801-64 64-64h640c35.199 0 64 28.801 64 64v448c0 35.199-28.801 64-64 64zm0-512H192v448h640V0zM384 640c0 70.563 57.406 128 128 128s128-57.437 128-128V512h64v128c0 105.875-86.125 192-192 192s-192-86.125-192-192V512h64v128zm-128 0c0 140.801 115.199 256 256 256s256-115.199 256-256V512h64v128c0 176.437-143.563 320-320 320S192 816.437 192 640V512h64v128zm320-384v64h-64v64h-64V64h64v64h64v64h-64v64z" data-tags="locked"/><glyph unicode="" d="M704 512H64c-35.199 0-64-28.801-64-64V0c0-35.199 28.801-64 64-64h640c35.199 0 64 28.801 64 64v448c0 35.199-28.801 64-64 64zm0-512H64v448h640V0zm64 960c-141.375 0-255.969-114.625-255.969-256L512 512h64v192c0 105.996 85.937 192 191.969 192 106.035 0 192-86.004 192-192H960v-64h-64v64c0 70.688-57.312 128-128 128s-128-57.312-128-128V512h64v192c0 35.316 28.66 64 64 64s64.031-28.684 64.031-64V576H1024v128c0 141.375-114.625 256-256 256zM448 256v64h-64v64h-64V64h64v64h64v64h-64v64z" data-tags="unlocked"/><glyph unicode="" d="M513.376 948.249L634.003 576H1024L708.499 346.502l121.247-372-316.37 230.183L196.933-25.498l121.19 372L0 576h392.685z" data-tags="favorites"/></font>
</defs>
</svg>
