<svg xmlns="http://www.w3.org/2000/svg"><defs><font id="Drawbox" horiz-adv-x="1024"><font-face units-per-em="1024" ascent="960" descent="-64"/><glyph horiz-adv-x="512"/><glyph unicode="" glyph-name="text" d="M160.685-64H0L448.457 960h131.469L1024-64H860.394L755.218 187.661H264.399L160.684-64zm154.841 377.492H702.63L509.809 793.673 315.526 313.492z"/><glyph unicode="" glyph-name="danger" horiz-adv-x="1152" d="M1138.684 72.776a87.986 87.986 0 0 0-76.196-131.986H91.467c-31.438 0-60.485 16.772-76.203 43.995s-15.717 60.771.007 87.991L500.782 913.52c15.717 27.223 44.764 43.985 76.196 43.985a87.982 87.982 0 0 0 76.196-43.985l485.511-840.744zM516.072 566.611l25.233-288.87c1.472-17.005 14.969-31.02 32.559-32.559 19.702-1.723 37.069 12.856 38.789 32.559l25.233 288.87c.271 3.376.306 7.159 0 10.639-2.937 33.641-32.587 58.526-66.224 55.592-33.638-2.941-58.526-32.597-55.588-66.231zm60.906-440.266c27.871 0 50.465 22.594 50.465 50.465s-22.594 50.465-50.465 50.465c-27.871 0-50.465-22.594-50.465-50.465s22.594-50.465 50.465-50.465z"/><glyph unicode="" glyph-name="stop" d="M0 550.4h1024V322.844H0V550.4z"/><glyph unicode="" glyph-name="star" horiz-adv-x="1053" d="M526.629 154.13L852.085-42.143 765.98 328.023l287.277 248.938-378.698 32.494-147.931 348.996-147.929-348.996-378.7-32.494 287.277-248.938-86.105-370.166z"/><glyph unicode="" glyph-name="elliptic" d="M989.867 393.956c0-158.665-213.948-287.289-477.867-287.289S34.133 235.291 34.133 393.956 248.081 681.245 512 681.245s477.867-128.624 477.867-287.289z"/><glyph unicode="" glyph-name="rectangle" d="M51.2 755.2h924.444V155.022H51.2V755.2z"/><glyph unicode="" glyph-name="alarm" horiz-adv-x="896" d="M435.2-64c56.32 0 102.4 46.08 102.4 102.4H332.8C332.8-17.92 378.88-64 435.2-64zM768 243.2v281.6c0 158.72-107.52 286.72-256 322.56v35.84c0 40.96-35.84 76.8-76.8 76.8s-76.8-35.84-76.8-76.8v-35.84c-148.48-35.84-256-163.84-256-322.56V243.2L0 140.8V89.6h870.4v51.2L768 243.2z"/><glyph unicode="" glyph-name="circle" d="M1024 448c0-282.77-229.23-512-512-512S0 165.23 0 448s229.23 512 512 512 512-229.23 512-512z"/><glyph unicode="" glyph-name="curve" horiz-adv-x="916" d="M107.789-37.053H0c2.695 385.347 207.495 441.937 388.042 490.442 188.632 51.2 369.179 102.4 420.379 487.747l107.789-13.474c-61.979-455.411-304.505-522.779-498.526-576.674-180.547-51.2-307.2-86.232-309.895-388.042z"/><glyph unicode="" glyph-name="down" horiz-adv-x="768" d="M514.349 960H253.652V402.633H.001L384.001-64l384 466.633H514.35z"/><glyph unicode="" glyph-name="irregular" horiz-adv-x="1205" d="M199.358 761.82C95.852 656.228 317.897 606.347 259.763 455.959S-113.638 204.256 43.398 23.288 311.68 123.969 511.003 91.406 676.297-119.987 867.011-46.391c190.714 73.595-81.729 329.466 34.243 417.467s352.67 160.657 294.357 279.998c-58.314 119.341-140.814 48.421-277.281 34.672S907.997 960 771.384 960s-117.526-87.138-232.208-213.157-236.311 120.57-339.817 14.978z"/><glyph unicode="" glyph-name="line" horiz-adv-x="1052" d="M96.17 955.947l939.344-939.344-78.279-78.279L17.891 877.668l78.279 78.279z"/><glyph unicode="" glyph-name="pin" horiz-adv-x="569" d="M0 759.866S4.605 960 289.63 960s279.25-200.134 279.25-200.134V164.541L289.63-63.999 0 164.541v595.325zm284.44-238.723c90.948 0 164.676 72.044 164.676 160.914S375.388 842.971 284.44 842.971s-164.676-72.044-164.676-160.914 73.728-160.914 164.676-160.914z"/><glyph unicode="" glyph-name="polygon" horiz-adv-x="1159" d="M0 521.101v-574.14h1015.134v231.011L689.121 503.985l456.014 456.014H384.004z"/><glyph unicode="" glyph-name="polygonal" horiz-adv-x="1078" d="M105.095-53.221L2.695-20.884 231.748 658.19l517.389-347.621L972.8 951.916l102.4-37.726-269.474-770.695-517.389 347.621z"/><glyph unicode="" glyph-name="right" horiz-adv-x="1378" d="M447.741 163.602L134.322 477.021 29.849 372.548 447.74-45.343l895.482 895.482-104.473 104.473z"/><glyph unicode="" glyph-name="triangle" horiz-adv-x="1086" d="M543.03 960L1086.06-64H-.001z"/><glyph unicode="" glyph-name="up" horiz-adv-x="768" d="M253.651-64h260.697v557.367h253.651L383.999 960l-384-466.633H253.65z"/><glyph unicode="" glyph-name="wrong" d="M1024 857.6L921.6 960 512 550.4 102.4 960 0 857.6 409.6 448 0 38.4 102.4-64 512 345.6 921.6-64 1024 38.4 614.4 448z"/><glyph unicode="" glyph-name="arrow-solid" d="M345.977 861.239l651.67 72.408-72.408-651.67L744.22 462.996 237.366-43.858 20.143 173.365l506.854 506.854z"/><glyph unicode="" glyph-name="clear" horiz-adv-x="896" d="M864 896.007H624l-18.799 37.4a48.001 48.001 0 0 1-42.999 26.6H333.6a47.431 47.431 0 0 1-42.8-26.6l-18.8-37.4H32a31.999 31.999 0 0 1-32-32v-64a32.003 32.003 0 0 1 32-32h832a31.996 31.996 0 0 1 22.626 9.373A31.994 31.994 0 0 1 896 800.007v64a31.996 31.996 0 0 1-9.374 22.628A31.995 31.995 0 0 1 864 896.007zM106.4 26.005a96 96 0 0 1 95.8-89.997h491.599a95.974 95.974 0 0 1 65.719 26.031 95.971 95.971 0 0 1 30.08 63.966L832 704.007H64l42.4-678.002z"/></font>
</defs>
</svg>
