<svg xmlns="http://www.w3.org/2000/svg"><defs><font id="feature_actions" horiz-adv-x="1024"><font-face units-per-em="1024" ascent="960" descent="-64"/><glyph horiz-adv-x="512"/><glyph unicode="" glyph-name="Select" d="M0 959.969V-64.033h577.379L255.495 635.969v322zM1024 896l-639.797-2.03 63.797 64V641.945l-6.116 27.304 77.763-164.857-11.454-8.968-62.017 14.711-6.206 13.157 309.958 242.679h274.074l-64-64v257.828l.203.001 63.797-63.595v-.203zm-640 61.969L1024 960V701.969H772L467.969 463.93 384 641.944v316.025zm185.847-578.587L765.878-34.751 708.031 1.867h312.006l-64-64V576l64-64H795.999l39.634 13.749-284-224 18.212 77.633zM512 352l284 224h224.038V-62.133H708.032L512.001 352z"/><glyph unicode="" glyph-name="Clear_selection" horiz-adv-x="964" d="M957.741-15.812H662.588L481.882 387.764l265.035 210.824h210.824v-614.4zM704.753 44.424h192.753v493.929H764.988L554.164 369.694 704.752 44.423zM542.118-3.765H0V960h240.941V652.8L542.117-3.765zM60.235 56.471h385.506L180.706 652.8v246.965H60.235V56.471zm379.483 433.694l-78.306 174.682V960h602.353V719.059H728.847L439.718 490.165zm-18.071 186.729l42.165-84.329 240.941 192.753h198.776v114.447H421.647V676.894z"/><glyph unicode="" glyph-name="Export" d="M812.526 510.446H452.259c-191.652-6.377-201.918-253.227-194.685-255.374 9.431-93.138 126.544-78.576 126.544 0s49.274 127.859 68.141 127.859h357.287c-28.977-30.669-74.1-81.07-74.1-81.07-24.706-24.975-24.568-65.607.7-91.148 25.093-25.365 65.797-25.343 90.169-.705l176.099 191.71a63.28 63.28 0 0 1 15.696 26.455c8.4 24.658 2.64 55.492-15.682 74.014L820.992 685.6c-24.373 24.638-65.076 24.66-90.169-.705-25.268-25.541-25.407-66.173-.7-91.148l82.404-83.301zM128 832V64h128.012C291.351 64 320 35.593 320 0c0-35.346-28.398-64-63.988-64H63.987C28.648-64-.001-35.593-.001 0v896c0 35.346 28.398 64 63.988 64h192.025C291.351 960 320 931.593 320 896c0-35.346-28.398-64-63.988-64H128z"/><glyph unicode="" glyph-name="Statistics" d="M1024 960H-1.975l423.863-551.021v78.043L-1.975-63.999H1024v128H128L178.728-39.02 553.36 448.001 178.728 935.022 128 832.001h896z"/><glyph unicode="" glyph-name="Add_as_Stops_of_Directions" d="M512-64C229.23-64 0 165.23 0 448s229.23 512 512 512 512-229.23 512-512S794.77-64 512-64zm0 128c212.077 0 384 171.923 384 384S724.077 832 512 832 128 660.077 128 448 299.923 64 512 64zm0 192c106.039 0 192 85.961 192 192s-85.961 192-192 192-192-85.961-192-192 85.961-192 192-192z"/><glyph unicode="" glyph-name="Add_To" d="M102.4 960C46.08 960 0 902.4 0 832V64C0-6.4 46.08-64 102.4-64h819.2C977.92-64 1024-6.4 1024 64v640c0 70.4-46.08 128-102.4 128H448L345.6 960H102.4zM768 319.852H576.551V128H449.577v191.852H256v128.086h193.577V640h126.974V447.938H768V319.852z"/><glyph unicode="" glyph-name="arrow-back" d="M1024 512H243.2l358.4 358.4L512 960 0 448 512-64l89.6 89.6L243.2 384H1024z"/><glyph unicode="" glyph-name="check-box-outline" d="M278.756 556.089l-79.644-79.644 256-256 568.889 568.889-79.644 79.644-489.244-489.244L278.757 556.09zM910.222 49.778H113.778v796.444h568.889V960H113.778C51.2 960 0 908.8 0 846.222V49.778C0-12.8 51.2-64 113.778-64h796.444C972.8-64 1024-12.8 1024 49.778v455.111H910.222V49.778z"/><glyph unicode="" glyph-name="close" d="M1024 857.6L921.6 960 512 550.4 102.4 960 0 857.6 409.6 448 0 38.4 102.4-64 512 345.6 921.6-64 1024 38.4 614.4 448z"/><glyph unicode="" glyph-name="Copy_Attributes" d="M651.636 960H93.091C41.891 960 0 918.109 0 866.909V215.273h93.091v651.636h558.545V960zm260.655-186.182h-614.4c-61.44 0-111.709-41.891-111.709-93.091V29.091c0-51.2 50.269-93.091 111.709-93.091h614.4C973.731-64 1024-22.109 1024 29.091v651.636c0 51.2-50.269 93.091-111.709 93.091zm18.618-744.727H279.273v651.636h651.636V29.091z"/><glyph unicode="" glyph-name="Create_Layer" d="M896-64c70.4 0 128 46.08 128 102.4v819.2c0 56.32-57.6 102.4-128 102.4H128C57.6 960 0 913.92 0 857.6V243.2L384-64h512zM448 320V0L96 320h352z"/><glyph unicode="" glyph-name="Directions_From_Here" d="M832.096 256C867.389 256 896 284.407 896 320c0 35.346-28.639 64-63.904 64h-408.27c-22.237 41.556-58.582 75.925-103.826 98.548V512H64v-29.452V512h768.037C937.962 512 1024 426.039 1024 320c0-105.823-85.945-192-191.963-192H400.642c24.654 43.259 37.56 87.309 44.499 128h386.955zM1024 768L768 576v384l256-192zM114.207 501.696C83.391 526.287 64 560.773 64 608c0 123.46 100.228 224 223.866 224H1024V512H320v-29.452C282.467 501.315 238.809 512 192 512c-27.188 0-53.314-3.605-77.793-10.304zM1024 704H287.441C234.73 704 192 661.389 192 608c0-53.019 42.403-96 95.441-96H1024v192zm0 0v128H768V704h256zM192 448c106.971 0 192-79.36 192-179.2C384 135.68 192-64 192-64S0 135.68 0 268.8C0 368.64 85.029 448 192 448zm0-256c35.84 0 64 28.16 64 64s-28.16 64-64 64-64-28.16-64-64 28.16-64 64-64z"/><glyph unicode="" glyph-name="Directions_To_Here" d="M0-64v448h736.134C859.077 384 960 283.712 960 160 960 36.54 859.772-64 736.134-64H0zM0 64h736.559C789.27 64 832 106.611 832 160c0 53.019-42.403 96-95.441 96H0V64zm0 320V256h256v128H0zM0 64V-64h64V64H0zm960 640V256H223.866C100.923 256 0 356.288 0 480c0 123.46 100.228 224 223.866 224H960zm0-128H223.441C170.73 576 128 533.389 128 480c0-53.019 42.403-96 95.441-96H960v192zm0-320v128H704V256h256zm0 320v128H384V576h576zm-384 64L384 768V512l192 128zm256 320c-106.971 0-192-79.36-192-179.2C640 647.68 832 448 832 448s192 199.68 192 332.8c0 99.84-85.029 179.2-192 179.2zm0-256c-35.84 0-64 28.16-64 64s28.16 64 64 64 64-28.16 64-64-28.16-64-64-64z"/><glyph unicode="" glyph-name="drive-document" d="M910.222 960H113.778C51.2 960 0 908.8 0 846.222V49.778C0-12.8 51.2-64 113.778-64h796.444C972.8-64 1024-12.8 1024 49.778v796.444C1024 908.8 972.8 960 910.222 960zM796.444 618.667H227.555v113.778h568.889V618.667zm0-227.556H227.555v113.778h568.889V391.111zM625.778 163.556H227.556v113.778h398.222V163.556z"/><glyph unicode="" glyph-name="Edit" d="M0 152.178V-64h216.178l625.778 631.467-216.178 216.178L0 152.178zm1006.933 580.266c22.756 22.756 22.756 56.889 0 79.644L876.089 942.932c-22.756 22.756-56.889 22.756-79.644 0l-102.4-102.4 216.178-216.178 96.711 108.089z"/><glyph unicode="" glyph-name="flash" d="M460.8 960h102.4V755.2H460.8V960zm0-819.2h102.4V-64H460.8v204.8zM113.757 773.835l72.408 72.408L330.98 701.428l-72.408-72.408-144.815 144.815zm579.262-579.262l72.408 72.408 144.815-144.815-72.408-72.408-144.815 144.815zM0 396.8v102.4h204.8V396.8H0zm819.2 0v102.4H1024V396.8H819.2zM186.165 49.757l-72.408 72.408L258.572 266.98l72.408-72.408L186.165 49.757zm579.262 579.262l-72.408 72.408 144.815 144.815 72.408-72.408-144.815-144.815zM358.4 601.6h307.2V294.4H358.4v307.2z"/><glyph unicode="" glyph-name="Follow" d="M832 896v64H192v-64H64V768H0V128h64V0h128v-64h640V0h128v128h64v640h-64v128H832zM0 960h1024V-64H0V960zM608 0C448.942 0 320 128.942 320 288s128.942 288 288 288 288-128.942 288-288S767.058 0 608 0zm0 64c123.712 0 224 100.288 224 224S731.712 512 608 512 384 411.712 384 288 484.288 64 608 64zM128 832h128V704H128v128zm128-192h128V512H256v128zm352-448c53.019 0 96 42.981 96 96s-42.981 96-96 96-96-42.981-96-96 42.981-96 96-96z"/><glyph unicode="" glyph-name="launch" d="M910.222 49.778H113.778v796.444H512V960H113.778C51.2 960 0 908.8 0 846.222V49.778C0-12.8 51.2-64 113.778-64h796.444C972.8-64 1024-12.8 1024 49.778V448H910.222V49.778zM625.778 960V846.222h204.8L273.067 288.711l79.644-79.644 557.511 557.511v-204.8H1024V960H625.778z"/><glyph unicode="" glyph-name="more" d="M128 576C57.6 576 0 518.4 0 448s57.6-128 128-128 128 57.6 128 128-57.6 128-128 128zm768 0c-70.4 0-128-57.6-128-128s57.6-128 128-128 128 57.6 128 128-57.6 128-128 128zm-384 0c-70.4 0-128-57.6-128-128s57.6-128 128-128 128 57.6 128 128-57.6 128-128 128z"/><glyph unicode="" glyph-name="PanTo" d="M224.959-64c-43.1 0-78.009 38.187-78.009 85.333v3.669L11.409 173.269c-15.212 16.64-15.212 43.648 0 60.331 15.251 16.64 39.941 16.64 55.152 0l80.388-87.936v473.003c0 23.552 17.474 42.667 39.005 42.667s39.005-19.115 39.005-42.667v-256h39.005v298.667c0 23.552 17.474 42.667 39.005 42.667s39.005-19.115 39.005-42.667V362.667h39.005v298.667c0 23.552 17.474 42.667 39.005 42.667s39.005-19.115 39.005-42.667V362.667h39.005v256c0 23.552 17.474 42.667 39.005 42.667s39.005-19.115 39.005-42.667V21.334c0-47.104-34.87-85.291-78.009-85.333H224.963zm29.569 1023.977V768.064H446.15v190.413l-191.622 1.5zM512 960V766.499L640 640l192.411 126.499h190.113V960H512.001zm127.257-448.501l147.889-319.434h235.383v487.414H853.511L639.257 511.498z"/><glyph unicode="" glyph-name="Select_All" d="M0 959.969V-64.033h577.379L255.495 635.969v322L0 959.969zm380.226-2V641.944l84.463-178.014L770.51 701.969h253.484V960l-643.768-2.031zM512.971 361.93L710.156-64.031h313.843V585.93H798.642l-285.672-224z"/><glyph unicode="" glyph-name="Set_as_An_Incident_of" d="M409.6 960H102.4C46.08 960 0 902.4 0 832V64C0-6.4 46.08-64 102.4-64h819.2C977.92-64 1024-6.4 1024 64v640c0 70.4-46.08 128-102.4 128H512L409.6 960zM448 704h128V320H448v384zm0-512h128V64H448v128z"/><glyph unicode="" glyph-name="Set_as_An_Input_of" d="M360.655 480.577L693.74 147.492c-14.958-56.036-.457-118.3 43.503-162.26 65.6-65.6 171.958-65.6 237.557 0s65.6 171.958 0 237.557c-43.965 43.965-106.237 58.464-162.277 43.499L479.437 599.374c44.737 93.664 28.316 209.241-49.263 286.82-77.582 77.582-193.167 94.001-286.834 49.256l197.742-197.742-118.789-118.789L24.551 816.661c-44.745-93.667-28.327-209.252 49.256-286.834 77.586-77.586 193.179-94.003 286.849-49.249zM915.411 163.4c32.8-32.8 33.026-85.752-.005-118.784-32.803-32.803-85.755-33.034-118.784-.005-32.8 32.8-33.026 85.752.005 118.784 32.803 32.803 85.755 33.034 118.784.005zM202.779 64.461v206.988C198.79 381.358 44.359 387.246 43.015 383.098c-58.268-5.408-49.158-72.571 0-72.571s79.99-28.258 79.99-39.078V66.691c-17.725 18.216-50.029 49.497-50.029 49.497-14.732 15.696-38.174 16.139-52.581.752-14.308-15.28-13.765-40.603.768-56.087L134.07-51.199c7.152-7.62 16.358-11.645 25.586-12.009 13.221-2.706 28.527 1.583 38.291 11.985L306.136 64.041c14.533 15.484 15.076 40.806.768 56.087-14.408 15.387-37.849 14.944-52.581-.752L202.78 64.462z"/><glyph unicode="" glyph-name="Show_Pop-up" d="M910.222 960H113.778C51.2 960 0 918.4 0 867.556V220.445c0-50.844 51.2-92.444 113.778-92.444h796.444c62.578 0 113.778 41.6 113.778 92.444v647.111C1024 918.4 972.8 960 910.222 960zM128 256v512h768V256H128zm288 576c-17.673 0-32 14.327-32 32s14.327 32 32 32c17.673 0 32-14.327 32-32s-14.327-32-32-32zm-128 0c-17.673 0-32 14.327-32 32s14.327 32 32 32c17.673 0 32-14.327 32-32s-14.327-32-32-32zm-128 0c-17.673 0-32 14.327-32 32s14.327 32 32 32c17.673 0 32-14.327 32-32s-14.327-32-32-32zM544-64l96 192H448l96-192z"/><glyph unicode="" glyph-name="Show_Related_Records" d="M0 960h512V448H0v512zm512-512h512V-64H512v512zm-352-64l160-256H0l160 256zm-32-256h64V-64h-64v192zM448 0v-64H192V0h256zm416 512L704 768h320L864 512zm32 256h-64v192h64V768zM576 896v64h256v-64H576z"/><glyph unicode="" glyph-name="Switch_Selection" d="M192 421.348v538.627l207.59-1.647V693.152l160.346-353.438C501.302 406.105 415.541 447.975 320 447.975c-45.511 0-88.802-9.501-128-26.627zM1023.995 896l-522.857-1.672 63.795 64V698.072l-6.037 27.134 62.269-133.02-11.772-9.287-61.346 14.526-6.357 13.58 254.142 200.499h228.162l-64-64v212.291l.205.001 63.795-63.592v-.205zm-523.062 62.327L1023.995 960V747.504H818.04L569.56 551.472l-68.626 146.6v260.256zM769.002 180.68H1024l-64-64v535.262l64-64H840.898l39.82 13.897-232.109-184.471 18.395 76.692 160.213-350.791-58.216-26.588v64zm0-64L608.789 467.471l232.109 184.471H1024V116.68H769.002zM552.727 160H640L523.636 272 407.272 160h87.273C494.545 67.6 416-8 320-8c-29.091 0-58.182 8.4-81.455 19.6l-43.636-42C232.727-50 273.454-64 320-64c128 0 232.727 100.8 232.727 224zm-407.272 0c0 92.4 78.545 168 174.545 168 29.091 0 58.182-8.4 81.455-19.6l43.636 42C407.273 370 366.546 384 320 384 192 384 87.273 283.2 87.273 160H0L116.364 48l116.364 112h-87.273z"/><glyph unicode="" glyph-name="View_In_Attribute_Table" d="M320 192H128v64h192v128H128v64h192v128H128V64h192v128zm320 0H384V64h256v128zm0 64v128H384V256h256zm64-64V64h192v512H704V448h192v-64H704V256h192v-64H704zM384 576V448h256v128H384zM0 832.38C0 902.863 57.249 960 127.62 960h768.76c70.483 0 127.62-57.249 127.62-127.62V63.62C1024-6.863 966.751-64 896.38-64H127.62C57.137-64 0-6.751 0 63.62v768.76zm128-.38V704h768v128H128z"/><glyph unicode="" glyph-name="Zoo_To" d="M259.023 702.824v208.3l190.5-1.529v-244.76C401.147 689.863 346.224 704 288 704c-9.757 0-19.421-.397-28.977-1.176zm283.5 206.771V667.929L605.5 531.801l228.023 182.03h189v197.318zM641.5 453.801l147.023-325.735h234.005v497.029H854.5zM514.8 156l-13.2 13.2c44 48.4 70.4 114.4 70.4 184.8 0 158.4-127.6 286-286 286S0 512.4 0 354 127.6 68 286 68c70.4 0 136.4 26.4 184.8 70.4l13.2-13.2V90L616-42l66 66-132 132h-35.2zM286 156c-110 0-198 88-198 198s88 198 198 198 198-88 198-198-88-198-198-198zm-22 220h-88v-44h88v-88h44v88h88v44h-88v88h-44v-88z"/><glyph unicode="" glyph-name="arrow-back-right" d="M0 512h780.8L422.4 870.4 512 960l512-512L512-64l-89.6 89.6L780.8 384H0z"/><glyph unicode="" glyph-name="operation" horiz-adv-x="1092" d="M273.067-64V72.533H0V-64h273.067zM0 550.4V413.867h750.933V550.4H0zm0 273.067h1092.267V960H0V823.467zm369.7-513.942l-86.836-85.141L567.839-64l524.211 467.3-86.697 85.256L578.415 98.531 369.699 309.524z"/><glyph unicode="" glyph-name="add" d="M448 512H0V384h448V-64h128v448h448v128H576v448H448V512z"/><glyph unicode="" glyph-name="description" d="M1001.498 446.502c0-269.69-218.432-488-488-488-269.562 0-488 218.31-488 488 0 269.562 218.438 488 488 488 269.568 0 488-218.438 488-488zM576 192v384H448V192h-64v-64h256v64h-64zm0 576H448V640h128v128z"/><glyph unicode="" glyph-name="check-mark" d="M381.657 256L161.439 476.249l-96-96L381.657 64l616.877 616.716-96.032 96.032z"/><glyph unicode="" glyph-name="blank-map-pin" d="M511.968 960C358.842 960 256 902.253 256 752V208L511.968-64 768 208v544c0 150.253-102.842 208-256.032 208z"/><glyph unicode="" glyph-name="edit-symbol" d="M256 162.133V0h162.133l469.333 473.6-162.133 162.133L256 162.133zm755.2 435.2c17.067 17.067 17.067 42.667 0 59.733l-98.133 98.133c-17.067 17.067-42.667 17.067-59.733 0l-76.8-76.8 162.133-162.133 72.533 81.067zM32 512h352v384H0V512h32zm32 64v256h256V576H64z"/><glyph unicode="" glyph-name="arrow_l" horiz-adv-x="683" d="M631.467 840.533L512 960 0 448 512-64 631.467 55.467 238.934 448z"/><glyph unicode="" glyph-name="arrow_r" horiz-adv-x="683" d="M51.2 840.533L170.667 960l512-512-512-512L51.2 55.467 443.733 448z"/><glyph unicode="" glyph-name="save" d="M896 960H0V-64h1024v896L896 960zM512 832h128V576H512v256zM896 64H128v768h64V512h576v320h74.976L896 778.976V64z"/><glyph unicode="" glyph-name="RoadOpen" horiz-adv-x="1182" d="M78.769 251.077h236.308v157.538h629.89c130.834 0 236.572-105.799 236.572-236.308 0-130.244-105.917-236.308-236.572-236.308H78.769v315.077zm0-157.539h866.267c43.611 0 78.964 34.963 78.964 78.769 0 43.503-35.9 78.769-78.964 78.769H78.769V93.538zm866.462 315.077v393.846h-669.29C123.543 802.461 0 678.72 0 526.769c0-152.261 123.572-275.692 275.941-275.692h590.521v157.538h78.769zm0 236.308V408.615H275.464c-65.02 0-117.925 52.899-117.925 118.154 0 65.71 52.797 118.154 117.925 118.154h669.767zm236.307 78.769L866.461 960V487.385l315.077 236.308z"/><glyph unicode="" glyph-name="RoadEditor" horiz-adv-x="1092" d="M604.864 345.6c14.574 20.726 12.443 47.914-6.393 66.75l-69.784 69.784h358.819c112.986 0 204.761-91.692 204.761-204.8 0-112.878-91.674-204.8-204.761-204.8H341.333v.906l136.23 135.627h410.006c37.646 0 68.164 30.301 68.164 68.267 0 37.703-30.549 68.267-68.164 68.267H604.864zM349.677 482.133H68.267v-31.416 31.416h281.41zm742.59 273.067L819.2 550.4V960l273.067-204.8zm-614.4-409.6h614.4v136.533H341.334L223.835 364.112C109.458 404.855 68.267 504.992 68.267 584.533c0 102.4 68.267 238.933 273.067 238.933h750.933V345.599h-614.4zm614.4 341.333H306.604c-56.225 0-101.804-45.452-101.804-102.4 0-56.554 45.23-102.4 101.804-102.4h785.663v204.8zm0 0v136.533H819.2V686.933h273.067zM0-64h115.295l333.748 336.782-115.295 115.295L0 51.295V-64zm537.031 467.247l-69.784 69.784c-12.136 12.136-30.341 12.136-42.477 0l-54.613-54.613 115.295-115.295 51.579 57.647c12.136 12.136 12.136 30.341 0 42.477z"/><glyph unicode="" glyph-name="SelectByCircle" d="M960 704H839.713l-104.262-80.181L736 416l-64 32v144.62l-160 128V896H384V320h64v-64H320v704h704V256H896l-64 64h128v384zm0 64v128H576V751.38l110.052-88.041-1.559 2.028L817.95 768.001H960zM550.52 35.495C492.308-25.84 410.546-64 320-64 143.269-64 0 81.377 0 260.71 0 413.168 103.547 541.085 243.171 576l15.314-63.055C145.129 484.599 64.001 380.892 64.001 260.71c0-143.466 114.615-259.768 256-259.768 70.57 0 136.424 29.029 184.421 79.602l46.099-45.048zM832 249.382L512 512V111.946l89.078 90.636L664.689 64l98.994 44.496-62.948 135.739z"/><glyph unicode="" glyph-name="SelectByLine" d="M960 704H839.713l-104.262-80.181L736 416l-64 32v144.62l-160 128V896H384V320h64v-64H320v704h704V256H896l-64 64h128v384zm0 64v128H576V751.38l110.052-88.041-1.559 2.028L817.95 768.001H960zM832 249.382L512 512V111.946l89.078 90.636L664.689 64l98.994 44.496-62.948 135.739zM0 658.745L45.255 704l241.283-241.283-128-224L397.255 0 352-45.255 78.717 228.028l128 224z"/><glyph unicode="" glyph-name="SelectByPolygon" d="M960 704H839.713l-104.262-80.181L736 416l-64 32v144.62l-160 128V896H384V320h64v-64H320v704h704V256H896l-64 64h128v384zm0 64v128H576V751.38l110.052-88.041-1.559 2.028L817.95 768.001H960zM832 249.382L512 512V111.946l89.078 90.636L664.689 64l98.994 44.496-62.948 135.739zM515.462 86.163H576V-64H0v704l262.716-103.348v-58.166l-202.178 74.95V-3.936h454.924z"/><glyph unicode="" glyph-name="SelectByRectangle_1" d="M314.315 128l-19.861 34.4 232.942 65.867L192 373.992v585.982L384 960V704l256-576H314.315zM512 960h511.995V768H832L576 576l-64 128v256zm63.995-64V722.745l25.249-53.418L812.905 832H960v64H575.995zm193.007-768L608.789 463.546 840.898 640H1024V128H769.002zm36.675 64H960v384H855.016L687.928 446.949 805.676 192zM0 34.297L38.277 352l294.277-125.703-126.851-36.287 112-193.99-112-60.246L94.852 126.01.001 34.297z"/><glyph unicode="" glyph-name="arrow-drop-down" d="M256 576l256-320 256 320z"/><glyph unicode="" glyph-name="SelectByLasso" d="M960 704H839.713l-104.262-80.181L736 416l-64 32v144.62l-160 128V896H384V320h64v-64H320v704h704V256H896l-64 64h128v384zm0 64v128H576V751.38l110.052-88.041-1.559 2.028L817.95 768.001H960zM832 249.382L512 512V111.946l89.078 90.636L664.689 64l98.994 44.496-62.948 135.739zM244.458 733.846l23.085-59.692c-48.123-18.611-80.126-45.385-97.666-80.465-7.93-15.859-9.274-32.966-7.808-80.026 2.456-78.847-2.946-119.829-33.115-170.412a236.203 236.203 0 0 0-6.328-10.026c-64.27-96.404-42.685-196.671 85.838-273.785 63.717-38.23 138.595-45.535 216.594-28.202 56.583 12.574 112.191 39.266 128.314 55.389l45.255-45.255C522.726-34.529 316.912-80.266 175.536 4.56 15.448 100.613-15.018 242.137 69.374 368.726a171.882 171.882 0 0 1 4.613 7.308c22.1 37.055 26.211 68.242 24.112 135.637-1.816 58.298.015 81.603 14.534 110.639 25.127 50.254 69.621 87.479 131.825 111.535z"/><glyph unicode="" glyph-name="SelectByPoint" d="M960 704H839.713l-104.262-80.181L736 416l-64 32v144.62l-160 128V896H384V320h64v-64H320v704h704V256H896l-64 64h128v384zm0 64v128H576V751.38l110.052-88.041-1.559 2.028L817.95 768.001H960zM832 249.382L512 512V111.946l89.078 90.636L664.689 64l98.994 44.496-62.948 135.739zM127.984 448C51.421 448 0 419.126 0 344V72L127.984-64 256 72v272c0 75.126-51.421 104-128.016 104z"/><glyph unicode="" glyph-name="SelectByRectangle2" horiz-adv-x="1092" d="M672 320v272.62l-160 128V896H384V416l-64 64v480h704V256H544l-64 64h192zm63.948 0H960v384H839.713l-104.262-80.181.496-303.819zM960 768v128H576V751.38l110.052-88.041-1.559 2.028L817.95 768.001H960zM447.953 261.869L0 640V63.982l124.696 130.502L245.383-64 383.96.067 264.2 254.458z"/></font>
</defs>
</svg>
